Скачать через торрент музыку Ruby Braff - Plays Standards & Evergreens - 1999, FLAC бесплатно без регистрации torrent

Если у вас наблюдаются проблемы со скриншотами, переходом по ссылками, скачиванием торрентов - проблемы в блокировщике рекламы AdBlock. #хорошегоДня!


Статистика раздачи
Размер:  205 MB   |    Зарегистрирован:  5 лет 6 месяцев   |    .torrent скачан:  147 раз   |   
Раздают:  1  
   
Загрузка...
 
Автор Сообщение

Umakiro

avatar Umakiro


Ruby Braff – Plays Standards & Evergreens

Жанр: Post-Bop
Год издания: 1999
Издатель (лейбл): Jazz Classix
Номер по каталогу: JC 98023
Аудиокодек: FLAC (*.flac)
Тип рипа: image+.cue
Битрейт аудио: lossless
Продолжительность: 51:39
Источник: web
Наличие сканов в содержимом раздачи: да

Треклист:
01. I've Got A Grush On You (4:14)
02. Lady Be Good (5:58)
03. Maybe (3:13)
04. My Foolish Heart (3:50)
05. Sweethearts On Parade (3:12)
06. My Shining Hour (5:39)
07. Sugar (7:05)
08. As Times Goes By (4:26)
09. You're Sensational / I Love You, Samantha / True Love (4:48)
10. Basin' Street Blues (4:08)
11. Linger A While (5:05)

Personnel:
Ruby Braff - cor
Gene Di Novi (1-5) - p
Howard Alden (6-11) - g
Frank Tate (6-11) - b

Rec.: Toronto, Canada, 1987 (#1-5); London 1991 (#6-11).
  
EAC extraction logfile from 29. October 2006, 14:20 for CD Ruby Braff / Ruby Braff plays standards and evergreens

Used drive : SAMSUNG CD-R/RW SW-248F Adapter: 0 ID: 0Read mode : Secure with NO C2, accurate stream, disable cacheRead offset correction : 97Overread into Lead-In and Lead-Out : No

Used output format : Internal WAV Routines 44.100 Hz; 16 Bit; Stereo

Other options : Fill up missing offset samples with silence : Yes Delete leading and trailing silent blocks : No Installed external ASPI interface

Range status and errorsSelected range Filename E:\Ruby Braff - Ruby Braff plays standards and evergreens.by.rat.eac-ape(covers)\Ruby Braff - Ruby Braff plays standards and evergreens.by.rat.eac-ape(covers).wav

Peak level 75.0 % Range quality 100.0 % CRC 23754D59 Copy OK

No errors occured

End of status report
  
REM DATE 1999REM GENRE JazzREM DISCID 9B0C1A0BREM COMMENT "ExactAudioCopy v0.95b4"PERFORMER "Ruby Braff"TITLE "Ruby Braff Plays Standards And Evergreens"FILE "Ruby Braff - Plays Standards & Evergreens.flac" WAVE TRACK 01 AUDIO TITLE "I've Got A Grush On You" PERFORMER "Ruby Braff" FLAGS DCP INDEX 01 00:00:00 TRACK 02 AUDIO TITLE "Lady Be Good" PERFORMER "Ruby Braff" FLAGS DCP INDEX 00 04:12:21 INDEX 01 04:14:21 TRACK 03 AUDIO TITLE "Maybe" PERFORMER "Ruby Braff" FLAGS DCP INDEX 00 10:10:53 INDEX 01 10:12:52 TRACK 04 AUDIO TITLE "My Foolish Heart" PERFORMER "Ruby Braff" FLAGS DCP INDEX 00 13:23:47 INDEX 01 13:25:47 TRACK 05 AUDIO TITLE "Sweethearts On Parade" PERFORMER "Ruby Braff" FLAGS DCP INDEX 00 17:14:01 INDEX 01 17:16:01 TRACK 06 AUDIO TITLE "My Shining Hour" PERFORMER "Ruby Braff" FLAGS DCP INDEX 00 20:26:01 INDEX 01 20:28:01 TRACK 07 AUDIO TITLE "Sugar" PERFORMER "Ruby Braff" FLAGS DCP INDEX 00 26:04:39 INDEX 01 26:06:39 TRACK 08 AUDIO TITLE "As Times Goes By" PERFORMER "Ruby Braff" FLAGS DCP INDEX 00 33:10:01 INDEX 01 33:12:01 TRACK 09 AUDIO TITLE "You're Sensational / I Love You, Samantha / True Love" PERFORMER "Ruby Braff" FLAGS DCP INDEX 00 37:36:37 INDEX 01 37:38:36 TRACK 10 AUDIO TITLE "Basin' Street Blues" PERFORMER "Ruby Braff" FLAGS DCP INDEX 00 42:24:02 INDEX 01 42:26:02 TRACK 11 AUDIO TITLE "Linger A While" PERFORMER "Ruby Braff" FLAGS DCP INDEX 00 46:32:11 INDEX 01 46:34:11


Трекер:  [ 26-Мар-2012 20:44 ]

  

Скачать .torrent

Размер .torrent файла 17 KB


Размер: 205 MB
Хэш (hash) релиза: 8de45ba7cee106704581ce6fb903bc7f13349ad3

Еще никто не оставлял запись к записи скачать торрент Ruby Braff - Plays Standards & Evergreens - 1999, FLAC . Будь первым!

!Обратная связь