Скачать через торрент музыку Lionel Hampton — Supreme Jazz — 2006 {Hybrid SACD}, FLAC бесплатно без регистрации torrent

Если у вас наблюдаются проблемы со скриншотами, переходом по ссылками, скачиванием торрентов - проблемы в блокировщике рекламы AdBlock. #хорошегоДня!


Статистика раздачи
Размер:  422 MB   |    Зарегистрирован:  5 лет 6 месяцев   |    .torrent скачан:  143 раза   |   
Раздают:  1  
   
Загрузка...
 
Автор Сообщение

Umakiro

avatar Umakiro


Lionel Hampton — Supreme Jazz

Жанр: Bop, Swing
Год издания диска: 2006
Издатель (лейбл): Supreme Jazz/Membran Music
Номер по каталогу: 223278
Аудиокодек: FLAC (*.flac)
Тип рипа: image+.cue
Битрейт аудио: lossless
Продолжительность: 67:43
Риппер: Oceandrop
Наличие сканов в содержимом раздачи: да

Треклист:
01. Mr. PC (5:27)
02. I Wish You Love (3:31)
03. Memories Of You (6:39)
04. Old Man River (8:48)
05. How High The Moon (6:23)
06. Satin Doll (5:18)
07. Ain't Misbehavin' (4:14)
08. Buddy's Cherokee (7:36)
09. Take The 'A' Train (6:21)
10. I'll Never Be The Same (3:44)
11. Sea Breeze (9:43)
  
Exact Audio Copy V0.99 prebeta 5 from 4. May 2009

EAC extraction logfile from 23. February 2010, 15:20

Lionel Hampton / Supreme Jazz

Used drive : ASUS DRW-1608P3S Adapter: 0 ID: 1

Read mode : SecureUtilize accurate stream : YesDefeat audio cache : YesMake use of C2 pointers : No

Read offset correction : 48Overread into Lead-In and Lead-Out : NoFill up missing offset samples with silence : YesDelete leading and trailing silent blocks : NoNull samples used in CRC calculations : YesUsed interface : Native Win32 interface for Win NT & 2000

Used output format : User Defined EncoderSelected bitrate : 1024 kBit/sQuality : HighAdd ID3 tag : NoCommand line compressor : C:\Program Files\Exact Audio Copy\FLAC\FLAC.EXEAdditional command line options : -5 -V -T "ARTIST=%a" -T "TITLE=%t" -T "ALBUM=%g" -T "DATE=%y" -T "TRACKNUMBER=%n" -T "GENRE=%m" -T "COMMENT=%e" %s -o %d

TOC of the extracted CD

Track | Start | Length | Start sector | End sector --------------------------------------------------------- 1 | 0:00.00 | 5:26.64 | 0 | 24513 2 | 5:26.64 | 3:30.64 | 24514 | 40327 3 | 8:57.53 | 6:38.49 | 40328 | 70226 4 | 15:36.27 | 8:47.73 | 70227 | 109824 5 | 24:24.25 | 6:22.70 | 109825 | 138544 6 | 30:47.20 | 5:18.29 | 138545 | 162423 7 | 36:05.49 | 4:13.65 | 162424 | 181463 8 | 40:19.39 | 7:36.17 | 181464 | 215680 9 | 47:55.56 | 6:21.01 | 215681 | 244256 10 | 54:16.57 | 3:43.59 | 244257 | 261040 11 | 58:00.41 | 9:42.41 | 261041 | 304731

Range status and errors

Selected range

Filename C:\extracts\Lionel Hampton - Supreme Jazz\Lionel Hampton - Supreme Jazz.wav

Peak level 100.0 % Range quality 100.0 % Test CRC 8576F5E5 Copy CRC 8576F5E5 Copy OK

No errors occurred

AccurateRip summary

Track 1 not present in databaseTrack 2 not present in databaseTrack 3 not present in databaseTrack 4 not present in databaseTrack 5 not present in databaseTrack 6 not present in databaseTrack 7 not present in databaseTrack 8 not present in databaseTrack 9 not present in databaseTrack 10 not present in databaseTrack 11 not present in database

None of the tracks are present in the AccurateRip database

End of status report
  
REM GENRE JazzREM DATE 1977REM DISCID AF0FDF0BREM COMMENT "ExactAudioCopy v0.99pb5"PERFORMER "Lionel Hampton"TITLE "Supreme Jazz"FILE "Lionel Hampton - Supreme Jazz.flac" WAVE TRACK 01 AUDIO TITLE "Mr. PC" PERFORMER "Lionel Hampton" INDEX 01 00:00:00 TRACK 02 AUDIO TITLE "I Wish You Love" PERFORMER "Lionel Hampton" INDEX 00 05:23:64 INDEX 01 05:26:64 TRACK 03 AUDIO TITLE "Memories Of You" PERFORMER "Lionel Hampton" INDEX 00 08:54:53 INDEX 01 08:57:53 TRACK 04 AUDIO TITLE "Old Man River" PERFORMER "Lionel Hampton" INDEX 00 15:33:27 INDEX 01 15:36:27 TRACK 05 AUDIO TITLE "How High The Moon" PERFORMER "Lionel Hampton" INDEX 00 24:21:25 INDEX 01 24:24:25 TRACK 06 AUDIO TITLE "Satin Doll" PERFORMER "Lionel Hampton" INDEX 00 30:44:20 INDEX 01 30:47:20 TRACK 07 AUDIO TITLE "Ain't Misbehavin'" PERFORMER "Lionel Hampton" INDEX 00 36:02:49 INDEX 01 36:05:49 TRACK 08 AUDIO TITLE "Buddy's Cherokee" PERFORMER "Lionel Hampton" INDEX 00 40:16:39 INDEX 01 40:19:39 TRACK 09 AUDIO TITLE "Take The 'A' Train" PERFORMER "Lionel Hampton" INDEX 00 47:52:56 INDEX 01 47:55:56 TRACK 10 AUDIO TITLE "I'll Never Be The Same" PERFORMER "Lionel Hampton" INDEX 00 54:13:57 INDEX 01 54:16:57 TRACK 11 AUDIO TITLE "Sea Breeze" PERFORMER "Lionel Hampton" INDEX 00 57:57:41 INDEX 01 58:00:41
Lionel Hampton with; Candido, an unknown person, Al Caiola, George Mraz, Richie Pratt, Barry Kiener,
Tom Warrington, Buddy Rich, Candido Camero, Steve Marcus, Gary Pribek, Paul Moen, Chick Corea,
Gayle Moran, and others.

Recorded 1977-1978.


Трекер:  [ 26-Мар-2012 20:42 ]

  

Скачать .torrent

Размер .torrent файла 10 KB


Размер: 422 MB
Хэш (hash) релиза: 6c6cb8685c8c60b6e5e35ceee3df20a4ee60e65b

Еще никто не оставлял запись к записи скачать торрент Lionel Hampton — Supreme Jazz — 2006 {Hybrid SACD}, FLAC . Будь первым!

!Обратная связь