Скачать через торрент музыку Wild Bill Davison - The Commodore Master Takes {1943-1946} - 1997, APE бесплатно без регистрации torrent

Если у вас наблюдаются проблемы со скриншотами, переходом по ссылками, скачиванием торрентов - проблемы в блокировщике рекламы AdBlock. #хорошегоДня!


Статистика раздачи
Размер:  287 MB   |    Зарегистрирован:  5 лет 6 месяцев   |    .torrent скачан:  89 раз   |   
Раздают:  1  
   
Загрузка...
 
Автор Сообщение

Umakiro

avatar Umakiro


•Wild Bill Davison - The Commodore Master Takes {1943-1946}•

Жанр: Dixieland, New Orleans Jazz, Swing
Страна-производитель диска: USA
Год издания: 1997
Издатель (лейбл): Commodore
Номер по каталогу: CMD-405
Аудиокодек: APE (*.ape)
Тип рипа: image+.cue
Битрейт аудио: lossless
Продолжительность: 01:13:22
Источник (релизер): barin99
Наличие сканов в содержимом раздачи: да

Треклист:

01. That's A-Plenty 4:16
02. Panama 4:23
03. Riverboat Shuffle 2:51
04. Muskrat Ramble 3:12
05. Clarinet Marmalade 2:57
06. Original Dixieland One-Step 3:11
07. At the Jazz Band Ball 3:00
08. Baby Won't You Please Come Home 2:56
09. I Don't Stand a Ghost of a Chance With You 2:40
10. Jazz Me Blues 3:21
11. Little Girl 2:43
12. Squeeze Me 2:30
13. A Monday Date 2:51
14. I'm Confessin' (That I Love You) 3:29
15. Big Butter and Egg Man 3:06
16. I Wish I Could Shimmy Like MySister Kate 3:15
17. Sensation Rag 2:45
18. Who's Sorry Now? 2:55
19. On the Alamo 2:50
20. Someday, Sweetheart 2:54
21. High Society 2:40
22. Wrap Your Troubles in Dreams(And Dream Your Troubles Away) 2:59
23. I'm Coming Virginia 2:35
24. Wabash Blues 2:54


Personnel:

Wild Bill Davison — Cornet
Albert Nicholas — Clarinet
Pee Wee Russell — Clarinet
Edmond Hall — Clarinet
Joe Marsala — Clarinet
Bill Miles — Sax (Baritone)
George Lugg — Trombone
Vernon Brown — Trombone
Georg Brunis — Trombone
Lou McGarity — Trombone
Eddie Condon — Guitar
Gene Schroeder — Piano
Dick Cary — Piano
Joe Sullivan — Piano
Bob Casey — Bass
Jack Lesberg — Bass
Dave Tough — Drums
George Wettling — Drums
Danny Alvin — Drums
  
Exact Audio Copy V1.0 beta 1 from 15. November 2010

EAC extraction logfile from 4. March 2012, 11:29

Wild Bill Davison / The Commodore Master Takes

Used drive : TSSTcorpDVD+-RW TS-L532B Adapter: 1 ID: 0

Read mode : SecureUtilize accurate stream : YesDefeat audio cache : YesMake use of C2 pointers : No

Read offset correction : 704Overread into Lead-In and Lead-Out : NoFill up missing offset samples with silence : YesDelete leading and trailing silent blocks : NoNull samples used in CRC calculations : YesUsed interface : Native Win32 interface for Win NT & 2000

Used output format : Internal WAV RoutinesSample format : 44.100 Hz; 16 Bit; Stereo

TOC of the extracted CD

Track | Start | Length | Start sector | End sector --------------------------------------------------------- 1 | 0:00.00 | 4:18.57 | 0 | 19406 2 | 4:18.57 | 4:26.30 | 19407 | 39386 3 | 8:45.12 | 2:54.20 | 39387 | 52456 4 | 11:39.32 | 3:15.25 | 52457 | 67106 5 | 14:54.57 | 2:59.55 | 67107 | 80586 6 | 17:54.37 | 3:13.58 | 80587 | 95119 7 | 21:08.20 | 3:02.70 | 95120 | 108839 8 | 24:11.15 | 2:58.37 | 108840 | 122226 9 | 27:09.52 | 2:42.68 | 122227 | 134444 10 | 29:52.45 | 3:24.07 | 134445 | 149751 11 | 33:16.52 | 2:46.13 | 149752 | 162214 12 | 36:02.65 | 2:33.25 | 162215 | 173714 13 | 38:36.15 | 2:54.35 | 173715 | 186799 14 | 41:30.50 | 3:31.67 | 186800 | 202691 15 | 45:02.42 | 3:08.68 | 202692 | 216859 16 | 48:11.35 | 3:17.70 | 216860 | 231704 17 | 51:29.30 | 2:47.40 | 231705 | 244269 18 | 54:16.70 | 2:57.50 | 244270 | 257594 19 | 57:14.45 | 2:52.67 | 257595 | 270561 20 | 60:07.37 | 2:56.60 | 270562 | 283821 21 | 63:04.22 | 2:43.15 | 283822 | 296061 22 | 65:47.37 | 3:01.55 | 296062 | 309691 23 | 68:49.17 | 2:38.08 | 309692 | 321549 24 | 71:27.25 | 2:54.60 | 321550 | 334659

Range status and errors

Selected range

Filename C:\Documents and Settings\VB\My Documents\BARIN99\Wild Bill Davison - The Commodore Master Takes\Wild Bill Davison - The Commodore Master Takes.wav

Peak level 95.6 % Extraction speed 0.1 X Range quality 100.0 % Copy CRC DD812293 Copy OK

No errors occurred

AccurateRip summary

Track 1 not present in databaseTrack 2 not present in databaseTrack 3 not present in databaseTrack 4 not present in databaseTrack 5 not present in databaseTrack 6 not present in databaseTrack 7 not present in databaseTrack 8 not present in databaseTrack 9 not present in databaseTrack 10 not present in databaseTrack 11 not present in databaseTrack 12 not present in databaseTrack 13 not present in databaseTrack 14 not present in databaseTrack 15 not present in databaseTrack 16 not present in databaseTrack 17 not present in databaseTrack 18 not present in databaseTrack 19 not present in databaseTrack 20 not present in databaseTrack 21 not present in databaseTrack 22 not present in databaseTrack 23 not present in databaseTrack 24 not present in database

None of the tracks are present in the AccurateRip database

End of status report
  
REM GENRE JazzREM DATE 1943REM DISCID 79116E18REM COMMENT "ExactAudioCopy v1.0b1"PERFORMER "Wild Bill Davison"TITLE "The Commodore Master Takes"FILE "Wild Bill Davison - The Commodore Master Takes.wav" WAVE TRACK 01 AUDIO TITLE "That's A-Plenty" PERFORMER "Wild Bill Davison" INDEX 01 00:00:00 TRACK 02 AUDIO TITLE "Panama" PERFORMER "Wild Bill Davison" INDEX 00 04:16:15 INDEX 01 04:18:57 TRACK 03 AUDIO TITLE "Riverboat Shuffle" PERFORMER "Wild Bill Davison" INDEX 00 08:42:45 INDEX 01 08:45:12 TRACK 04 AUDIO TITLE "Muskrat Ramble" PERFORMER "Wild Bill Davison" INDEX 00 11:36:67 INDEX 01 11:39:32 TRACK 05 AUDIO TITLE "Clarinet Marmalade" PERFORMER "Wild Bill Davison" INDEX 00 14:52:17 INDEX 01 14:54:57 TRACK 06 AUDIO TITLE "Original Dixieland One-Step" PERFORMER "Wild Bill Davison" INDEX 00 17:51:70 INDEX 01 17:54:37 TRACK 07 AUDIO TITLE "At the Jazz Band Ball" PERFORMER "Wild Bill Davison" INDEX 00 21:05:55 INDEX 01 21:08:20 TRACK 08 AUDIO TITLE "Baby Won't You Please Come Home" PERFORMER "Wild Bill Davison" INDEX 00 24:08:50 INDEX 01 24:11:15 TRACK 09 AUDIO TITLE "I Don't Stand a Ghost of a Chance with You" PERFORMER "Wild Bill Davison" INDEX 00 27:07:10 INDEX 01 27:09:52 TRACK 10 AUDIO TITLE "Jazz Me Blues" PERFORMER "Wild Bill Davison" INDEX 00 29:50:05 INDEX 01 29:52:45 TRACK 11 AUDIO TITLE "Little Girl" PERFORMER "Wild Bill Davison" INDEX 00 33:14:12 INDEX 01 33:16:52 TRACK 12 AUDIO TITLE "Squeeze Me" PERFORMER "Wild Bill Davison" INDEX 00 36:00:22 INDEX 01 36:02:65 TRACK 13 AUDIO TITLE "A Monday Date" PERFORMER "Wild Bill Davison" INDEX 00 38:33:50 INDEX 01 38:36:15 TRACK 14 AUDIO TITLE "I'm Confessin' (That I Love You)" PERFORMER "Wild Bill Davison" INDEX 00 41:27:17 INDEX 01 41:30:50 TRACK 15 AUDIO TITLE "Big Butter and Egg Man" PERFORMER "Wild Bill Davison" INDEX 00 45:00:00 INDEX 01 45:02:42 TRACK 16 AUDIO TITLE "I Wish I Could Shimmy Like My Sister Kate" PERFORMER "Wild Bill Davison" INDEX 00 48:08:70 INDEX 01 48:11:35 TRACK 17 AUDIO TITLE "Sensation Rag" PERFORMER "Wild Bill Davison" INDEX 00 51:26:65 INDEX 01 51:29:30 TRACK 18 AUDIO TITLE "Who's Sorry Now?" PERFORMER "Wild Bill Davison" INDEX 00 54:14:27 INDEX 01 54:16:70 TRACK 19 AUDIO TITLE "On the Alamo" PERFORMER "Wild Bill Davison" INDEX 00 57:12:02 INDEX 01 57:14:45 TRACK 20 AUDIO TITLE "Someday, Sweetheart" PERFORMER "Wild Bill Davison" INDEX 00 60:04:70 INDEX 01 60:07:37 TRACK 21 AUDIO TITLE "High Society" PERFORMER "Wild Bill Davison" INDEX 00 63:01:57 INDEX 01 63:04:22 TRACK 22 AUDIO TITLE "Wrap Your Troubles in Dreams" PERFORMER "Wild Bill Davison" INDEX 00 65:44:72 INDEX 01 65:47:37 TRACK 23 AUDIO TITLE "I'm Coming Virginia" PERFORMER "Wild Bill Davison" INDEX 00 68:46:50 INDEX 01 68:49:17 TRACK 24 AUDIO TITLE "Wabash Blues" PERFORMER "Wild Bill Davison" INDEX 00 71:24:60 INDEX 01 71:27:25


Трекер:  [ 26-Мар-2012 20:41 ]

  

Скачать .torrent

Размер .torrent файла 12 KB


Размер: 287 MB
Хэш (hash) релиза: 57b0dd50266d02236171bdca42e90f5017716674

Еще никто не оставлял запись к записи скачать торрент Wild Bill Davison - The Commodore Master Takes {1943-1946} - 1997, APE . Будь первым!

!Обратная связь