Скачать через торрент Топ Гир Top Gear бесплатно русская версия torrent активатор

Если у вас наблюдаются проблемы со скриншотами, переходом по ссылками, скачиванием торрентов - проблемы в блокировщике рекламы AdBlock. #хорошегоДня!


Статистика раздачи
Размер:  2.19 GB   |    Зарегистрирован:  5 лет 6 месяцев   |    .torrent скачан:  340 раз   |   
Раздают:  1  
   
Загрузка...
 
Автор Сообщение

L


Топ Гир / Top Gear
Год выпуска: 2012
Страна: Великобритания
Жанр: развлечения, авто
Продолжительность: ~01:00:00 серия
Озвучивание: любительский многоголосый закадровый
Субтитры: отсутсвуют

Режиссёр: Энди Уилман

В ролях: Джереми Кларксон, Ричард Хаммонд, Джеймс Мэй и др.
Aвто-шоу «Top Gear» — это программа абсолютно новой формации для телезрителей прогрессивного толка. В ней нет ни слова о недорогих семейных автомобилях, нет занудных советов автолюбителям, да и банального cлова «автолюбитель» в ней тоже нет.

Это программа для настоящих фанатов роскошных, безумно дорогих и самых быстрых автомобилей, для настоящих ценителей запаха бензина и пылающих тормозных дисков, для тех, кому не безразличен экстремальный драйв.

Эксперты программы, профессионалы высочайшего класса, способны вынести справедливый вердикт любому сверхсовременному спорткару.



* Перевод: Marky Mark и др.(1-ая серия), teftel и др.(2-ая серия), den1z и др.(3-я серия)
* Редактирование: 2strike
* Работа со звуком: 2strike

2strike - Джереми Кларксон
Inspector_Gadjet - Ричард Хаммонд
AnsverITO - Джеймс Мэй
Ni4kee - Уил Ай Эм(1-ая серия)
Zahar - Мэт Ли Бланк(2-ая серия)
Inspector_Gadjet - Райан Рейнольдс(3-я серия)

* Ведущие устраивают забег суперкаров в Италии — Lamborghini Aventador, McLaren MP4-12C и Noble M600.
* Знаменитость в бюджетном авто: will.i.am (рус. Уилл Ай Эм) — американский рэпер, актёр и музыкальный продюсер, один из создателей и солист хип-хоп-группы The Black Eyed Peas и владелец продюсерской компании «will.i.am music group».
* Ричард Хаммонд отправляется в Техас, чтобы рассказать об американских гонках NASCAR.
* Джереми Кларксон и Джеймс Мэй приезжают в Пекин, чтобы изучить китайский автопром.
* Mercedes-Benz SLS AMG Roadster на треке Top Gear в обзоре Кларксона.
* Знаменитость в бюджетном авто: Мэтт ЛеБлан, американский актер, известный по сериалам "Друзья" и "Эпизоды".
* Джеймс Мэй выносит свой вердикт Vauxhall Corsa VXR Nurburgring и новой Fiat Panda.
* Джереми и Ричард принимают участие в съемках фильма The Sweeney, отвечая за автомобильные погони и пиротехнику.
* Знаменитость в бюджетном авто: Райан Рейнольдс, голливудский актер канадского происхождения.
* Джеймс Мэй отправляется во Флориду для теста гибридного Fisker Karma, где встречается с фронтменом AC/DC Брайаном Джонсоном и его Bentley 1928 года.
* Ведущие проектируют собственные моторизированные инвалидные кресла для жизни за городом.
* Джереми Кларксон испытывает Ferrari FF и Bentley Continental GT V8 за полярным кругом.
* Знаменитость в бюджетном авто: Майкл Фассбендер, ирландский актер немецкого происхождения.
* Джереми Кларксон и Джеймс Мэй вспоминают почивший автоконцерн SAAB.
* Ричард Хаммонд в качестве пассажира раллийной Skoda Fabia в гонке против летающего человека с реактивным ранцем.
* Джереми Кларксон выпускает на трек Maserati Gran Turismo MC Stradale и Mercedes-Benz C63 AMG Black Series.
* Знаменитость в бюджетном авто: Мэтт Смит, актер из сериала «Доктор Кто».
* Ведущие выбираются на гоночный день на трек Донингтон на подходящих авто: Caterham R500, KTM X-Bow и Morgan 3 Wheeler.
* Джереми Кларксон воссоздает свою версию «Битвы за Британию» при помощи исторических английских авто.
* Знаменитость в бюджетном авто: Алекс Джеймс, музыкант из группы Blur.
* Ричард Хаммонд рассказывает о новой BMW M5.
* Джеймс Мэй одалживает Ferrari 250 California у радиоведущего Криса Эванса.
* Ведущие выясняют, можно ли потратить на участие в автогонках меньше, чем на игру в гольф.
* Гонщик Формулы-1 в бюджетном авто: Кими Райкконен.
* Знаменитость в бюджетном авто: Слэш, рок-музыкант.

Качество: HDTVRip Sample
Формат: mp4
Видео кодек: h264
Аудио кодек: AAC
Видео: 480 x 272, 25,000 fps, 608 kbps, 0.186 bit/pixel
Аудио rus: 48 kHz, 2 ch, 128 kbps
Общее
Полное имя : D:\DeepVoiceTV\psp\TopGear.s18e4.HDTVRip.PSP.DeepVoiceTV.Rus.mp4
Формат : MPEG-4
Профиль формата : Base Media
Идентификатор кодека : isom
Размер файла : 331 Мбайт
Продолжительность : 1 ч. 2 м.
Общий поток : 741 Кбит/сек
Программа кодирования : XviD4PSP 6.0 / 53.6.0

Видео
Идентификатор : 1
Формат : AVC
Формат/Информация : Advanced Video Codec
Профиль формата : <a href="mailto:Main@L3.0" class="postLink">Main@L3.0</a>
Параметр CABAC формата : Да
Параметр ReFrames формата : 2 кадра
Идентификатор кодека : avc1
Идентификатор кодека/Информация : Advanced Video Coding
Продолжительность : 1 ч. 2 м.
Битрейт : 608 Кбит/сек
Ширина : 480 пикселей
Высота : 272 пикселя
Соотношение сторон : 16:9
Соотношение сторон в оригинале : 16:9
Режим частоты кадров : Постоянный
Частота кадров : 25,000 кадров/сек
Цветовое пространство : YUV
Субдискретизация насыщенности : 4:2:0
Битовая глубина : 8 бит
Тип развёртки : Прогрессивная
Бит/(Пиксели*Кадры) : 0.186
Размер потока : 272 Мбайт (82%)
Библиотека кодирования : x264 core 116 r2044M 392e762
Настройки программы : cabac=1 / ref=2 / deblock=1:0:0 / analyse=0x1:0x131 / me=tesa / subme=10 / psy=1 / psy_rd=1.00:0.20 / mixed_ref=1 / me_range=16 / chroma_me=1 / trellis=2 / 8x8dct=0 / cqm=0 / deadzone=21,11 / fast_pskip=1 / chroma_qp_offset=-3 / threads=6 / sliced_threads=0 / nr=0 / decimate=1 / interlaced=0 / bluray_compat=0 / constrained_intra=0 / bframes=3 / b_pyramid=0 / b_adapt=2 / b_bias=0 / direct=3 / weightb=1 / open_gop=0 / weightp=2 / keyint=250 / keyint_min=25 / scenecut=40 / intra_refresh=0 / rc_lookahead=40 / rc=2pass / mbtree=1 / bitrate=608 / ratetol=1.0 / qcomp=0.60 / qpmin=10 / qpmax=51 / qpstep=4 / cplxblur=20.0 / qblur=0.5 / vbv_maxrate=2500 / vbv_bufsize=2000 / nal_hrd=none / ip_ratio=1.40 / aq=1:1.00
Язык : English

Аудио
Идентификатор : 2
Формат : AAC
Формат/Информация : Advanced Audio Codec
Профиль формата : LC
Идентификатор кодека : 40
Продолжительность : 1 ч. 2 м.
Вид битрейта : Постоянный
Битрейт : 128 Кбит/сек
Каналы : 2 канала
Расположение каналов : Front: L R
Частота : 48,0 КГц
Метод сжатия : С потерями
Размер потока : 57,2 Мбайт (17%)



Трекер:  [ 22-Мар-2012 22:15 ]

  

Скачать .torrent

Размер .torrent файла 12 KB


Размер: 2.19 GB
Хэш (hash) релиза: 27113807ca1361e39a592b6e247c937dbae689f3

Еще никто не оставлял запись к записи скачать торрент Топ Гир Top Gear . Будь первым!

!Обратная связь