Скачать через торрент Ева: Искусственный разум Eva бесплатно русская версия torrent активатор

Если у вас наблюдаются проблемы со скриншотами, переходом по ссылками, скачиванием торрентов - проблемы в блокировщике рекламы AdBlock. #хорошегоДня!


Статистика раздачи
Размер:  876 MB   |    Зарегистрирован:  5 лет 6 месяцев   |    .torrent скачан:  48 раз   |   
Раздают:  1  
   
Загрузка...
 
Автор Сообщение

L


Ева: Искусственный разум / Eva


Год выпуска: 2011
Страна: Испания
Жанр: фантастика, фэнтези, драма
Продолжительность: 01:30:53
Перевод : Профессиональный (многоголосый закадровый)
Русские субтитры: есть
Режиссёр: Кике Маильо / Kike Maillo
В ролях: Даниэль Брюль, Марта Этура, Льюис Омар, Альберто Эмманн, Клаудия Вега, Анн Кановас, Сара Роза, Манель Дуэсо, Джорди Диаз
Описание: Алекс, известный инженер в сфере кибернетики, возвращается в Санта-Ирину, чтобы заняться необычным проектом для факультета Робототехники своего университета ― созданием робота-ребенка. В течение десяти лет, пока его не было в городе, жизнь для его брата Дэвида и девушки Ланы шла своим чередом: теперь они живут вместе и у них есть дочь Ева. Между Алексом и Евой сразу налаживаются хорошие отношения, и так получается, что Ева самым неожиданным образом меняет подход Алекса к его разработкам. Для них начинается путешествие, которое обещает интригующую кульминацию.
Качество: DVDRip
Формат: *.m4v
Видео кодек: H.264
аудио кодек: ААС
Разрешение: 576х320
Другие параметры видео: CRF-Q18,5, 25.000 кадр/сек
Аудио 1: 128 Кбит/сек; 2 канала; 48,0 КГц Профессиональный (многоголосый закадровый)
Аудио 2: 128 Кбит/сек; 2 канала; 48,0 КГц Оригинал Испанский
Вшитая обложка: есть
Доп. теги (режиссёр, актёры и т.д.): прописаны
Телешоу/видеоклип : прописан
Главы: нет
Серия/сезон: нет
Format : MPEG-4
Codec ID : M4V
File size : 876 MiB
Duration : 1h 30mn
Overall bit rate mode : Variable
Overall bit rate : 1 347 Kbps
Movie name : Ева: Искусственный разум «Eva»
Performer : Кике Маильо
Genre : Science Fiction
Recorded date : 2011
Encoded date : UTC 2012-03-18 21:25:16
Tagged date : UTC 2012-03-19 21:29:50
Writing application : Yamb 2.1.0.0 []http://yamb.unite-video.com]
Cover : Yes
desc : Алекс, известный инженер в сфере кибернетики, возвращается в Санта-Ирину, чтобы заняться необычным проектом для факультета Робототехники своего университета ― созданием робота-ребенка.
hdvd : 0
stik : 9
akID : -1
sfID : 0
iTunEXTC : mpaa|NR|000|
iTunMOVI : <?xml version="1.0" encoding="UTF-8"?> / <!DOCTYPE plist PUBLIC "-//Apple//DTD PLIST 1.0//EN" "http://www.apple.com/DTDs/PropertyList-1.0.dtd"> / <plist version="1.0"> / <dict> / <key>cast</key> / <array> / <dict> / <key>name</key> / <string>Даниэль Брюль</string> / </dict> / <dict> / <key>name</key> / <string>Альберто Эмманн</string> / </dict> / <dict> / <key>name</key> / <string>Марта Этура</string> / </dict> / <dict> / <key>name</key> / <string>Сара Роза</string> / </dict> / <dict> / <key>name</key> / <string>Анн Кановас</string> / </dict> / <dict> / <key>name</key> / <string>Клаудия Вега</string> / </dict> / <dict> / <key>name</key> / <string>Джорди Диаз</string> / </dict> / </array> / <key>directors</key> / <array> / <dict> / <key>name</key> / <string>Кике Маильо</string> / </dict> / </array> / <key>producers</key> / <array> / <dict> / <key>name</key> / <string>Сержи Касамитьяна</string> / </dict> / </array> / <key>screenwriters</key> / <array> / <dict> / <key>name</key> / <string>Кристина Клементе</string> / </dict> / </array> / </dict> / </plist>

Video
ID : 1
Format : AVC
Format/Info : Advanced Video Codec
Format profile : <a href="mailto:Baseline@L3.0" class="postLink">Baseline@L3.0</a>
Format settings, CABAC : No
Format settings, ReFrames : 2 frames
Codec ID : avc1
Codec ID/Info : Advanced Video Coding
Duration : 1h 30mn
Bit rate : 1 082 Kbps
Maximum bit rate : 5 621 Kbps
Width : 720 pixels
Height : 320 pixels
Display aspect ratio : 2.25:1
Frame rate mode : Constant
Frame rate : 25.000 fps
Color space : YUV
Chroma subsampling : 4:2:0
Bit depth : 8 bits
Scan type : Progressive
Bits/(Pixel*Frame) : 0.188
Stream size : 704 MiB (80%)
Title : Imported with GPAC 0.4.6-DEV (build 1)
Writing library : x264 core 79 r1342kMod e8501ef
Encoding settings : cabac=0 / ref=2 / deblock=1:-1:-1 / analyse=0x1:0x111 / me=umh / subme=7 / psy=1 / psy_rd=1.0:0.0 / mixed_ref=0 / me_range=16 / chroma_me=1 / trellis=0 / 8x8dct=0 / cqm=0 / deadzone=21,11 / chroma_qp_offset=-2 / threads=6 / nr=0 / decimate=1 / mbaff=0 / constrained_intra=0 / bframes=0 / wpredp=0 / keyint=250 / keyint_min=25 / scenecut=40 / rc_lookahead=60 / rc=crf / mbtree=1 / crf=18.5000 / qcomp=0.60 / qpmin=10 / qpmax=51 / qpstep=4 / ip_ratio=1.40 / aq=1:1.00
Encoded date : UTC 2012-03-18 21:21:08
Tagged date : UTC 2012-03-18 21:25:44

Audio #1
ID : 2
Format : AAC
Format/Info : Advanced Audio Codec
Format profile : LC
Codec ID : 40
Duration : 1h 30mn
Bit rate mode : Variable
Bit rate : 128 Kbps
Maximum bit rate : 159 Kbps
Channel(s) : 2 channels
Channel positions : Front: L R
Sampling rate : 48.0 KHz
Compression mode : Lossy
Stream size : 83.2 MiB (10%)
Language : Russian
Encoded date : UTC 2012-03-18 21:25:34
Tagged date : UTC 2012-03-18 21:25:44

Audio #2
ID : 3
Format : AAC
Format/Info : Advanced Audio Codec
Format profile : LC
Codec ID : 40
Duration : 1h 30mn
Bit rate mode : Variable
Bit rate : 128 Kbps
Maximum bit rate : 170 Kbps
Channel(s) : 2 channels
Channel positions : Front: L R
Sampling rate : 48.0 KHz
Compression mode : Lossy
Stream size : 83.2 MiB (10%)
Language : Spanish
Encoded date : UTC 2012-03-18 21:25:39
Tagged date : UTC 2012-03-18 21:25:44

Text
ID : 4
Format : Timed text
Muxing mode : sbtl
Codec ID : tx3g
Duration : 1h 26mn
Bit rate mode : Variable
Bit rate : 62 bps
Stream size : 38.9 KiB (0%)
Language : Russian
Encoded date : UTC 2012-03-18 21:25:43
Tagged date : UTC 2012-03-18 21:25:44


Трекер:  [ 20-Мар-2012 07:45 ]

  

Скачать .torrent

Размер .torrent файла 17 KB


Размер: 876 MB
Хэш (hash) релиза: 95ae9e4fa6ccbeaecc94db402c1c6e40985962d1

Еще никто не оставлял запись к записи скачать торрент Ева: Искусственный разум Eva . Будь первым!

!Обратная связь