Скачать через торрент Флейта и Ранец Recorder to Randsell Do бесплатно Аниме Все серии на русском torrent

Если у вас наблюдаются проблемы со скриншотами, переходом по ссылками, скачиванием торрентов - проблемы в блокировщике рекламы AdBlock. #хорошегоДня!


Статистика раздачи
Размер:  525 MB   |    Зарегистрирован:  5 лет 5 месяцев   |    .torrent скачан:  33 раза   |   
Раздают:  1  
   
Загрузка...
 
Автор Сообщение

Yuki-san

avatar Yuki-san


Флейта и Ранец / Recorder to Randsell Do / Recorder to Randoseru / Recorder and Randsell / リコーダーとランドセル ド♪

Страна: Япония
Год выпуска: 2012 г.
Жанр: комедия
Тип: TV
Продолжительность: ~ 3 мин. эпизод
Режиссер: Кимура Хироси
Студия: Seven

Описание: Эта история знакомит нас с Атсуми и Атсуси Миягава, они брат с сестрой. Все было бы наверно обыденно, если бы не одно но... Атсуси вымахал до 180 см и выглядит как взрослый, но при этом учится в начальной школе, а вот его сестренка Атсуми ростом всего ничего - 137 см, но при этом она уже в средней школе. И как вы уже догадались, жизнь у них не из скучных, ведь из-за такой разницы их за каждым углом поджидают разнообразные недоразумения и казусы...

Качество: HDTVRip
Тип релиза: Без хардсаба
Формат видео: MP4
Видео: AVC, 1280x720, 1485 kbps, 23,976 fps
Аудио: AAC, 192 kbps, 48 KHz , 2 ch Язык Русский (в составе контейнера) ; Озвучка: NegauShi
Аудио 2: AAC, 211 kbps, 48 KHz , 2 ch Язык Японский ; Озвучка 2:оригинал
Субтитры: .ass (внешние) Язык субтитров русский Advantage
  
ОбщееПолное имя : G:\Torrent\anime\Recorder to Randoseru\Recorder to Randoseru\[Zero-Raws]_Recorder_to_Randsell_-_[01_of_13]_[720p_[NegauShi].mp4Формат : MPEG-4Профиль формата : Base MediaИдентификатор кодека : isomРазмер файла : 40,6 МбайтПродолжительность : 3 м. 0 с.Режим общего битрейта : ПеременныйОбщий поток : 1890 Кбит/секДата кодирования : UTC 2012-03-05 15:24:42Дата пометки : UTC 2012-03-05 15:24:42Программа кодирования : Yamb 2.1.0.0 []http://yamb.unite-video.com]

ВидеоИдентификатор : 1Формат : AVCФормат/Информация : Advanced Video CodecПрофиль формата : <a href="mailto:High@L4.1Параметр" class="postLink">High@L4.1Параметр</a> CABAC формата : ДаПараметр ReFrames формата : 4 кадраИдентификатор кодека : avc1Идентификатор кодека/Информация : Advanced Video CodingПродолжительность : 3 м. 0 с.Битрейт : 1485 Кбит/секМаксимальный битрейт : 5962 Кбит/секШирина : 1280 пикселейВысота : 720 пикселейСоотношение сторон : 16:9Режим частоты кадров : ПостоянныйЧастота кадров : 23,976 кадра/секЦветовое пространство : YUVСубдискретизация насыщенности : 4:2:0Битовая глубина : 8 битТип развёртки : ПрогрессивнаяБит/(Пиксели*Кадры) : 0.067Размер потока : 31,9 Мбайт (79%)Библиотека кодирования : x264 core 119 r2106 07efeb4Настройки программы : cabac=1 / ref=3 / deblock=1:0:0 / analyse=0x3:0x113 / me=hex / subme=7 / psy=1 / psy_rd=1.00:0.00 / mixed_ref=1 / me_range=16 / chroma_me=1 / trellis=1 / 8x8dct=1 / cqm=0 / deadzone=21,11 / fast_pskip=1 / chroma_qp_offset=-2 / threads=12 / sliced_threads=0 / nr=0 / decimate=1 / interlaced=0 / bluray_compat=0 / constrained_intra=0 / bframes=3 / b_pyramid=2 / b_adapt=1 / b_bias=0 / direct=1 / weightb=1 / open_gop=0 / weightp=2 / keyint=250 / keyint_min=23 / scenecut=40 / intra_refresh=0 / rc_lookahead=40 / rc=crf / mbtree=1 / crf=19.5 / qcomp=0.60 / qpmin=0 / qpmax=69 / qpstep=4 / ip_ratio=1.40 / aq=1:1.00Дата кодирования : UTC 2012-01-06 01:19:49Дата пометки : UTC 2012-03-05 15:24:43

Аудио #1Идентификатор : 2Формат : AACФормат/Информация : Advanced Audio CodecПрофиль формата : HE-AAC / LCИдентификатор кодека : 67Продолжительность : 2 м. 59 с.Вид битрейта : ПеременныйБитрейт : 192 Кбит/секМаксимальный битрейт : 197 Кбит/секКаналы : 2 каналаРасположение каналов : Front: L RЧастота : 96,0 КГц / 48,0 КГцМетод сжатия : С потерямиРазмер потока : 4,06 Мбайт (10%)Заголовок : negaushiЯзык : RussianДата кодирования : UTC 2012-03-05 15:24:43Дата пометки : UTC 2012-03-05 15:24:43

Аудио #2Идентификатор : 3Формат : AACФормат/Информация : Advanced Audio CodecПрофиль формата : LCИдентификатор кодека : 40Продолжительность : 3 м. 0 с.Вид битрейта : ПеременныйБитрейт : 211 Кбит/секМаксимальный битрейт : 238 Кбит/секКаналы : 2 каналаРасположение каналов : Front: L RЧастота : 48,0 КГцМетод сжатия : С потерямиРазмер потока : 4,52 Мбайт (11%)Заголовок : originalЯзык : JapaneseДата кодирования : UTC 2012-03-05 15:24:43Дата пометки : UTC 2012-03-05 15:24:43


Трекер:  [ 16-Апр-2012 23:33 ]

  

Скачать .torrent

Размер .torrent файла 13 KB


Размер: 525 MB
Хэш (hash) релиза: f0141c37faf1993daf436824ffe32e01b3e9b914
Подписка на обновления:

Еще никто не оставлял запись к записи скачать торрент Флейта и Ранец Recorder to Randsell Do . Будь первым!

!Обратная связь