Скачать через торрент The Alchemist - Rappers Best Friend 2: An Instrumental Series - 2012 бесплатно русская версия torrent активатор

Если у вас наблюдаются проблемы со скриншотами, переходом по ссылками, скачиванием торрентов - проблемы в блокировщике рекламы AdBlock. #хорошегоДня!


Статистика раздачи
Размер:  211 MB   |    Зарегистрирован:  5 лет 5 месяцев   |    .torrent скачан:  32 раза   |   
Раздают:  1  
   
Загрузка...
 
Автор Сообщение

Galfimbul

avatar Galfimbul


The Alchemist - Rapper's Best Friend 2: An Instrumental Series

Год: 2012
Страна: USA
Страна-производитель диска: USA
Жанр: Hip-Hop
Тип издания: оригинал
Издатель (лейбл): Decon Records
Номер по каталогу: DCN 151CD
Наличие сканов в содержимом раздачи: да
Продолжительность: 33:12
Тексты: не требуются
Программа-риповщик : foobar2000 + iTunes (lossless)
Битрейт: lossless
Треклист:
01. Chemistry Wars
02. Ten Dollars
03. Perfection
04. Lullabye
05. Gangster Shit Pt. 1
06. Gangster Shit Pt. 2
07. The Microphone
08. Pain
09. Far Left
10. Death Wish
11. Wet Wipes
12. Whole Lotta Thug
13. Killing Me
14. The Meeting
  
Exact Audio Copy V1.0 beta 3 from 29. August 2011

EAC extraction logfile from 3. March 2012, 14:55

The Alchemist / Rapper's Best Friend 2: An InstrumentalSeries

Used drive : PLDS DVD+-RW DS-8A5SH Adapter: 1 ID: 0

Read mode : SecureUtilize accurate stream : YesDefeat audio cache : YesMake use of C2 pointers : No

Read offset correction : 6Overread into Lead-In and Lead-Out : NoFill up missing offset samples with silence : YesDelete leading and trailing silent blocks : NoNull samples used in CRC calculations : YesUsed interface : Native Win32interface for Win NT & 2000Gap handling : Appended toprevious track

Used output format : User Defined EncoderSelected bitrate : 32 kBit/sQuality : HighAdd ID3 tag : NoCommand line compressor : C:\Program Files(x86)\FLAC\flac.exeAdditional command line options : -T "artist=%artist%" -T"title=%title%" -T "album=%albumtitle%" -T "date=%year%"-T "tracknumber=%tracknr%" -T "genre=%genre%" -8 %source%

TOC of the extracted CD

Track | Start | Length | Start sector | End sector---------------------------------------------------------1 | 0:00.00 | 1:23.15 | 0 | 62392 | 1:23.15 | 2:12.52 | 6240 | 161913 | 3:35.67 | 2:00.64 | 16192 | 252554 | 5:36.56 | 2:31.50 | 25256 | 366305 | 8:08.31 | 1:55.03 | 36631 | 452586 | 10:03.34 | 2:18.42 | 45259 | 556507 | 12:22.01 | 2:13.28 | 55651 | 656538 | 14:35.29 | 2:27.21 | 65654 | 766999 | 17:02.50 | 3:34.21 | 76700 | 9277010 | 20:36.71 | 1:59.57 | 92771 | 10175211 | 22:36.53 | 2:21.32 | 101753 | 11235912 | 24:58.10 | 2:25.50 | 112360 | 12328413 | 27:23.60 | 3:28.50 | 123285 | 13893414 | 30:52.35 | 2:26.46 | 138935 | 149930

Track 1

Filename G:\alchemist\201-The_Alchemist-Chemistry_Wars.wav

Pre-gap length 0:00:02.00

Peak level 99.8 %Extraction speed 2.2 XTrack quality 100.0 %Test CRC 7DC8F7D9Copy CRC 7DC8F7D9Track not present in AccurateRip databaseCopy OK

Track 2

Filename G:\alchemist\202-The_Alchemist-Ten_Dollars.wav

Peak level 99.8 %Extraction speed 2.7 XTrack quality 100.0 %Test CRC E9FF6921Copy CRC E9FF6921Track not present in AccurateRip databaseCopy OK

Track 3

Filename G:\alchemist\203-The_Alchemist-Perfection.wav

Peak level 99.8 %Extraction speed 2.0 XTrack quality 99.9 %Test CRC B3962F27Copy CRC B3962F27Track not present in AccurateRip databaseCopy OK

Track 4

Filename G:\alchemist\204-The_Alchemist-Lullabye.wav

Peak level 99.8 %Extraction speed 3.0 XTrack quality 100.0 %Test CRC 2B1CEF67Copy CRC 2B1CEF67Track not present in AccurateRip databaseCopy OK

Track 5

FilenameG:\alchemist\205-The_Alchemist-Gangster_Shit_Pt._1.wav

Peak level 99.8 %Extraction speed 2.9 XTrack quality 100.0 %Test CRC 8B09369DCopy CRC 8B09369DTrack not present in AccurateRip databaseCopy OK

Track 6

FilenameG:\alchemist\206-The_Alchemist-Gangster_Shit_Pt._2.wav

Peak level 99.8 %Extraction speed 3.2 XTrack quality 100.0 %Test CRC 51917DE9Copy CRC 51917DE9Track not present in AccurateRip databaseCopy OK

Track 7

Filename G:\alchemist\207-The_Alchemist-The_Microphone.wav

Peak level 99.8 %Extraction speed 3.3 XTrack quality 100.0 %Test CRC 2B2990FBCopy CRC 2B2990FBTrack not present in AccurateRip databaseCopy OK

Track 8

Filename G:\alchemist\208-The_Alchemist-Pain.wav

Peak level 99.8 %Extraction speed 3.4 XTrack quality 100.0 %Test CRC 409FA99DCopy CRC 409FA99DTrack not present in AccurateRip databaseCopy OK

Track 9

Filename G:\alchemist\209-The_Alchemist-Far_Left.wav

Peak level 99.8 %Extraction speed 3.9 XTrack quality 100.0 %Test CRC 834F9431Copy CRC 834F9431Track not present in AccurateRip databaseCopy OK

Track 10

Filename G:\alchemist\210-The_Alchemist-Death_Wish.wav

Peak level 99.8 %Extraction speed 3.6 XTrack quality 100.0 %Test CRC 2F11F36DCopy CRC 2F11F36DTrack not present in AccurateRip databaseCopy OK

Track 11

Filename G:\alchemist\211-The_Alchemist-Wet_Wipes.wav

Peak level 99.8 %Extraction speed 2.9 XTrack quality 99.9 %Test CRC B7BD7E3ACopy CRC B7BD7E3ATrack not present in AccurateRip databaseCopy OK

Track 12

FilenameG:\alchemist\212-The_Alchemist-Whole_Lotta_Thug.wav

Peak level 99.8 %Extraction speed 3.9 XTrack quality 100.0 %Test CRC 63E451A2Copy CRC 63E451A2Track not present in AccurateRip databaseCopy OK

Track 13

Filename G:\alchemist\213-The_Alchemist-Killing_Me.wav

Peak level 99.8 %Extraction speed 4.3 XTrack quality 100.0 %Test CRC 086B0D92Copy CRC 086B0D92Track not present in AccurateRip databaseCopy OK

Track 14

Filename G:\alchemist\214-The_Alchemist-The_Meeting.wav

Peak level 99.8 %Extraction speed 4.1 XTrack quality 100.0 %Test CRC 05E822EDCopy CRC 05E822EDTrack not present in AccurateRip databaseCopy OK

None of the tracks are present in the AccurateRip database

No errors occurred

End of status report

==== Log checksumCA3C4BF85C26B763D737612C8ACF19E300CC6DBA3E6F9A6C08871E063F118A45 ====


Трекер:  [ 06-Май-2012 14:39 ]

  

Скачать .torrent

Размер .torrent файла 34 KB


Размер: 211 MB
Хэш (hash) релиза: 3880681b3cbacc81f9ad56b96f9116b7668366b6

Еще никто не оставлял запись к записи скачать торрент The Alchemist - Rappers Best Friend 2: An Instrumental Series - 2012 . Будь первым!

!Обратная связь