Скачать через торрент Katie Melua - Дискография бесплатно русская версия torrent активатор

Если у вас наблюдаются проблемы со скриншотами, переходом по ссылками, скачиванием торрентов - проблемы в блокировщике рекламы AdBlock. #хорошегоДня!


Статистика раздачи
Размер:  2.4 GB   |    Зарегистрирован:  5 лет 5 месяцев   |    .torrent скачан:  60 раз   |   
Раздают:  1  
   
Загрузка...
 
Автор Сообщение

Galfimbul

avatar Galfimbul


Katie Melua - Дискография (2003-2012), ALAC

Добавлено 3 альбома:

The Katie Melua Collection
Live at the O2 Arena
Secret Symphony

Год: 2003-2010
Жанр: Jazz/Blues/Pop
Общая продолжительность: 4:05:14
Тексты: вшиты
Аудио кодек: ALAC
Тип рипа: tracks
Программа-риповщик: foobar2000 + iTunes
Битрейт аудио: lossless

Кэти Мелуа — британская певица и автор-исполнительница своих песен.

Родилась в Грузии, в возрасте 8 лет переехала в Северную Ирландию, а в 14 лет - в Великобританию. Её дебют состоялся в 2003 году. А уже с 2006 года Кати стала самой продаваемой певицей Великобритании и Европе. Мелуа работает с небольшой звукозаписывающей компанией «Dramatico» под руководством известного музыканта и композитора Майка Батта (Mike Batt).

В ноябре 2003 года, когда Кэти было всего 19 лет, увидел свет ее первый альбом «Call Off the Search», занявший первые строчки в чартах Великобритании и разошедшийся тиражом 1,2 миллиона копий за первые 5 месяцев. Её второй альбом, «Piece by Piece», вышел в сентябре 2005 года и к настоящему времени стал четырежды платиновым.
Katie Melua родилась в Грузии (бывшей республике СССР) в 1984 году, выросла в городе Тбилиси, а позднее в прибрежном городке Батуми (Аджария). Её семья покинула Грузию и обосновалась в Белфасте (Сев. Ирландия), когда ей было всего 8 лет. Переезд был связан с профессией отца: он был практикующим хирургом. Когда Кэти рассказывала об этом одной учительнице уже позднее в Англии описание переезда было примерно таким: «из огня, да в полымя». На самом деле она никогда не чувствовала подобную атмосферу, потому что у неё было счастливое детство как в Грузии, так и в Северной Ирландии. Кэти понимала, что люди в Северной Ирландии весьма дружелюбные и вскоре она приобрела хороших друзей в начальной школе Св. Катерины и Доминиканском колледже в Форт-Уильяме. Кэти посещала католические школы в Северной Ирландии в то время как её младший брат ходил в протестантскую школу.

Её семья жила в Белфасте ещё 5 лет, прежде чем переехать в юго-восточный Лондон. Когда Кэти было 15, она приняла участие в телевизионном конкурсе юных талантов под названием «Звёзды поднимают носы», исполнив песню Mariah Carey «Without you». Хотя её участие было задумано ради шутки, она победила в конкурсе (призом была пересторойка спальни и кресло для её отца), а главное — она также получила ценный опыт трёхразового «живого» выступления на ирландском ТВ.

После сдачи экзаменов на сертификат второй ступени образования (GCSE — General Certificate of Secondary Education) Кэти поступила в Британскую Школу исполнительных искусств, где она получила диплом степени А по музыке.
«Мой друг уже поступил туда и казалось, что это хорошее место… и оно было свободным!» — вспоминает Кэти.
Во время обучения в школе она открыла для себя различные стили и музыкальные направления, включая таких исполнителей как Queen, Joni Mitchell, Bob Dylan, ирландский фолк и индийскую музыку. Она была потрясена песней Eva Cassidy, которая произвела на неё глубокое впечатление. Когда она узнала, что Эвы уже нет в живых, она сочинила tribute-песню «Faraway Voice».

Композитор и продюсер Mike Batt уже оплачивал визит в школу с целю поиска музыкантов для формирования джаз-бэнда. В последнюю минуту Кэти решила исполнить «Faraway Voice» и Майк осознал, что нашёл весьма своеобразного исполнителя: «такие как Кэти не попадаются очень часто, она — настоящий оригинал!». Кэти подписала контракт с звукозаписывающим лэйблом Dramatico, но осталась в школе для завершения учёбы — она получила диплом с отличием в июле 2003 года.

Кэти и Майк собирались в студии, где большой опыт и проверенная способность Майка сочинять песни великолепно сработали вместе со свежим подходом Кэти: уникальным мировоззрением и исключительным голосом. Вышедший вскоре альбом состоял из оригинальных композиций как Майка, так и Кэти и включал также тщательно подобранное оформление.

Её сенсационный голос привлёк внимание Terry Wogan, который также как и с Эвой Кэссиди, принял решение познакомить всех с Кэти и её первым синглом «The Closest Thing To Crazy» летом 2003 года. Michael Parkinson также поддержал эту идею, часто предоставляя юной Кэти возможность выступать на своём шоу. Одновременно с релизом сингла Кэти добилась его попадания в чарты на 10-е место.

Музыка как в виде творества, так и в виде исполнения очевидно является страстью для Кэти:
«Я начала сочинять песни в 2001 и имею маленькую домашнюю студию, в создании которой мне помогли родители. Я твёрдо убеждена, что музыку следует исполнять „вживую“ и что великие музыканты — оригинальны и талантливы в своих лайв-выступлениях. Мной всегда овладевает тёплое чувство, когда я вижу кого-нибудь, держащего в руке чехол для гитары или скрипки на улице. Как будто я знаю, что смогу подружиться с таким человеком. Я всегда улыбаюсь и говорю — привет!»
Конец 2003 года стал увлекательным временем для 19-летней Кэти. Она была приглашена для выступления на ежегодное представление Royal Variety, где она повстречала Queen, которые сказали: «Мы слышали твою запись по радио — хорошая работа!» В ноябре 2003 Кэти выступала уже на другой сцене. Её дебютный альбом «Call Off the Search» вышел в Британии в ноябре 2003, а в январе 2004 достиг вершины альбомных чартов, потеснив Dido. Временно отодвинутая на второй план Норой Джонс, Кэти вновь вернулась на первые строки чартов и держалась там на протяжении трёх недель. Конец февраля 2004 ознаменовался для неё лайв-туром по Британии, который состоял из 14 выступлений. Потом вышли ещё 2 сингла и последовали туры по Америке и Европе. Она даже приезжала в Москву, жалко, что тогда мало кто её знал!

«Call Off the Search» получил 10 топ-позиций по всей Европе и был признан золотым в Голландии, Гонг Конге и Швейцарии, платиновым в Дании, Новой Зеландии и Австралии, дважды платиновым в Германии, Ирландии, Норвегии и Южной Африке. В Европе было продано более 2-ух миллионов копий. В 2005 году альбом стал лучшим и в Японии. В Британии же альбом был признан 6 раз платиновым.

В марте 2005 года Кэти была приглашена Нельсоном Мандела для участия в его благотворительном концерте (средства пошли на борьбу со спидом), который собрал 46664 человек. Она сыграла не только все песни с альбома, но и выступила вместе с Queen с новой версией «Too Much Love Will Kill You». Из Южной Африки Кэти полетела в Шри Ланку, где она почувствовала, какая серьёзная работа проводилась организацией «Спасём детей» и приняла в ней участие.

В перерывах между путешествиями Кэти записала свой новый альбом «Piece By Piece», в очередной раз продемонстрировав свой высочайший исполнительский талант. Вышедший вслед сингл «Nine Million Bicycles» был включен в длинный список джазовых сборников. Кавер-композицию на песню группы Cure «Just Like Heaven» (1987) Кэти записала для нового фильма компании DreamWorks с участием Риз Уизерспун, премьера которого состоялась в сентябре 2005 в США и в ноябре — в Британии.

2 октября 2006, Мелуа вошла в Книгу рекордов Гиннеса за исполнение самого глубоководного концерта — 303 метра ниже уровня моря на Платформе Troll A компании Statoil в Северном море. Мелуа и её группа прошли необходимые медицинские тесты и тренинги на выживание в Норвегии перед тем, как совершить перелёт на вертолёте и высадиться на платформу. Запись этого концерта вышла на DVD под названием «Концерт под морем» (Concert Under the Sea), в июне 2007. Указанный рекорд сохранялся за Мелуа до апреля 2007, когда оркестр из польского Калиша сыграл концерт под землёй, в Величской соляной шахте на глубине 327 м. Вообще, такой поступок для певицы вполне типичен, так как за увлечение экстремальными видами спорта в прессе Кэти даже получила прозвище «адреналинозависимая».

Пути к славе имеют опасные повороты, и в марте 2005 года стало известно, что Мелуа рассталась со своим бойфрендом Люком Притчардом, лид-вокалистом группы The Kooks. Они начали встречаться ещё во время учебы в Школе, и даже подумывали о свадьбе. Но Люку оказалось невыносимо сложно встречаться с подругой, становившейся все более знаменитой, тогда как он сам фактически топтался на месте. Как часто бывает с по-настоящему талантливыми людьми, расставание только добавило глубины в творчество Кэти.

В 2007 году Мелуа под руководством Майка Батта выпустила свой третий студийный альбом Pictures. Диск пронизан кинематографической тематикой, что может быть связано с недавно приобретенным актерским опытом, и содержит прекрасные поп-баллады с блюзовым вокалом. Первый сингл, милая романтическая композиция You Were A Sailboat, отлично передает настроение всего альбома.
Альбомы:
Call Off the Search

Жанр: Jazz/Blues/Pop
Год выпуска диска: 2003
Label: Dramatico
Аудио кодек: ALAC
Тип рипа: tracks
Битрейт аудио: lossless
Продолжительность: 42:12
Трэклист:

1. Call off the Search (Mike Batt) – 3:25
2. Crawling up a Hill (John Mayall) – 3:25
3. The Closest Thing to Crazy (Batt) – 4:12
4. My Aphrodisiac Is You (Batt) – 3:35
5. Learnin' the Blues (Delores J. Silver) – 3:23
6. Blame It on the Moon (Batt) – 3:48
7. Belfast (Penguins and Cats) (Katie Melua) – 3:22
8. I Think It's Going to Rain Today (Randy Newman) – 2:30
9. Mockingbird Song (Batt) – 3:07
10. Tiger in the Night (Batt) – 3:08
11. Faraway Voice (Melua) – 3:14
12. Lilac Wine (James Shelton) – 4:11
  
EAC extraction logfile from 22. October 2006, 13:48 for CDKatie Melua / Call Off The Search

Used drive : DVDRW IDE 16X Adapter: 1 ID: 1Read mode : Secure with NO C2, accurate stream, disable cacheRead offset correction : 12Overread into Lead-In and Lead-Out : No

Used output format : E:\Program Files\REACT\REACT.exe (User Defined Encoder) 32 kBit/s Additional command line options : REACT %o %s %d "%a" "%g" "%t" "%n" "%x" "%y" "%m" "%e" "%f" "%b" %r

Other options : Fill up missing offset samples with silence : Yes Delete leading and trailing silent blocks : No Native Win32 interface for Win NT & 2000

Range status and errorsSelected range Filename I:\Katie Melua - (2003) Call Off The Search.wav

Peak level 100.0 % Range quality 100.0 % CRC A7B1B03D Copy OK

No errors occured

End of status report

------------------------------------------------------------------------------------------------

Katie Melua - [2003] - Call Off The Search\Katie Melua - (2003) Call Off The Search.wav.cue:

Checking AccurateRip database

Track Ripping Status [Disc ID: 0012a8c9-8809af0c]

1 Accurately Ripped (confidence 3) [0e74e535] 2 Accurately Ripped (confidence 3) [fe9a5119] 3 Accurately Ripped (confidence 3) [79c1924f] 4 Accurately Ripped (confidence 3) [93984b2d] 5 Accurately Ripped (confidence 3) [a8552047] 6 Accurately Ripped (confidence 3) [32509c05] 7 Accurately Ripped (confidence 3) [6a26ec81] 8 Accurately Ripped (confidence 3) [ec9196cf] 9 Accurately Ripped (confidence 3) [6a637934] 10 Accurately Ripped (confidence 3) [5ac7202a] 11 Accurately Ripped (confidence 3) [4883a9c6] 12 Accurately Ripped (confidence 3) [9a61b454]

_______________________

All Tracks Accurately Ripped.
Piece by Piece

Жанр: Jazz/Blues/Pop
Год выпуска диска: 2005
Label: Dramatico
Аудио кодек: ALAC
Тип рипа: tracks
Битрейт аудио: lossless
Продолжительность: 44:32
Трэклист:

1. Shy Boy (Mike Batt) – 3:29
2. Nine Million Bicycles (Mike Batt) – 3:15
3. Piece by Piece (Katie Melua) – 3:24
4. Halfway up the Hindu Kush (Katie Melua, Mike Batt) – 3:07
5. Blues in the Night (Harold Arlen, Johnny Mercer) – 4:13
6. Spider's Web (Katie Melua) – 3:58
7. Blue Shoes (Mike Batt) – 4:39
8. On the Road Again (Floyd Jones, Alan Wilson) – 4:39
9. Thank You, Stars (Mike Batt) – 3:39
10. Just like Heaven (Robert Smith, Porl Thompson, Simon Gallup, Lol Tolhurst, Boris Williams) – 3:35
11. I Cried for You (Katie Melua) – 3:38
12. I Do Believe in Love (Katie Melua) – 3:01
Exact Audio Copy V0.99 prebeta 4 from 23. January 2008

Отчёт EAC об извлечении, выполненном 15. сентября 2008, 20:02

Katie Melua / Piece By Piece

Дисковод: ASUS DRW-1612BL Adapter: 1 ID: 1

Режим чтения : Достоверность
Использование точного потока : Да
Отключение кэша аудио : Да
Использование указателей C2 : Нет

Коррекция смещения при чтении : 6
Способность читать области Lead-in и Lead-out : Нет
Заполнение пропущенных сэмплов тишиной : Да
Удаление блоков с тишиной в начале и конце : Нет
При вычислениях CRC использовались нулевые сэмплы : Да
Интерфейс : Установленный внешний ASPI-интерфейс

Выходной формат : Внутренние WAV-операции
Формат сэмплов : 44.100 Гц; 16 бит; стерео

TOC извлечённого CD

Трек | Старт | Длительность | Начальный сектор | Конечный сектор
---------------------------------------------------------------------
1 | 0:00.00 | 3:28.41 | 0 | 15640
2 | 3:28.41 | 3:15.34 | 15641 | 30299
3 | 6:44.00 | 3:24.28 | 30300 | 45627
4 | 10:08.28 | 3:06.58 | 45628 | 59635
5 | 13:15.11 | 4:12.60 | 59636 | 78595
6 | 17:27.71 | 3:58.00 | 78596 | 96445
7 | 21:25.71 | 4:39.30 | 96446 | 117400
8 | 26:05.26 | 4:38.56 | 117401 | 138306
9 | 30:44.07 | 3:39.35 | 138307 | 154766
10 | 34:23.42 | 3:35.30 | 154767 | 170921
11 | 37:58.72 | 3:38.07 | 170922 | 187278
12 | 41:37.04 | 3:00.73 | 187279 | 200851

Характеристики диапазона извлечения и сообщения об ошибках

Выбранный диапазон

Имя файла F:\Варез\На раздачу\Katie Melua 2005\Katie Melua - Piece By Piece.wav

Пиковый уровень 98.8 %
Качество диапазона 100.0 %
CRC копии DC28F891
Копирование... OK

Ошибок не произошло

AccurateRip: сводка

Трек 1 точное извлечение (доверие 19) [0C25ACC8]
Трек 2 точное извлечение (доверие 19) [BDB4BC90]
Трек 3 точное извлечение (доверие 18) [5B517093]
Трек 4 точное извлечение (доверие 18) [C6641B68]
Трек 5 точное извлечение (доверие 18) [CF7BA87F]
Трек 6 точное извлечение (доверие 18) [12DDA5B2]
Трек 7 точное извлечение (доверие 17) [3D565FD2]
Трек 8 точное извлечение (доверие 17) [AC45CD20]
Трек 9 точное извлечение (доверие 17) [B25CD4B8]
Трек 10 точное извлечение (доверие 17) [A2C3A9CB]
Трек 11 точное извлечение (доверие 17) [4E0C0F36]
Трек 12 точное извлечение (доверие 17) [8CBA5452]

Все треки извлечены точно

Конец отчёта
Pictures

Жанр: Jazz/Blues/Pop
Год выпуска диска: 2007
Label: Dramatico
Аудио кодек: ALAC
Тип рипа: tracks
Битрейт аудио: lossless
Продолжительность: 44:38
Трэклист:

1. Mary Pickford (Used to Eat Roses) (Mike Batt) - 3:12
2. All in My Head (Batt/Katie Melua) - 4:04
3. If the Lights Go Out (Batt) - 3:15
4. What I Miss About You (Andrea McEwan/Melua) - 3:48
5. Spellbound (Melua) - 3:01
6. What It Says on the Tin (Batt) - 3:45
7. Scary Films (Batt) - 4:03
8. Perfect Circle (Molly McQueen/Melua) - 4:01
9. Ghost Town (Batt/Melua) - 3:32
10. If You Were a Sailboat (Batt) - 4:03
11. Dirty Dice (McEwan/Melua) - 3:39
12. In My Secret Life (Leonard Cohen/Sharon Robinson) - 4:23
EAC extraction logfile from 29. September 2007, 21:32 for CD
Katie Melua / Pictures

Used drive : HL-DT-STDVDRAM GSA-H12N Adapter: 0 ID: 0
Read mode : Secure with NO C2, accurate stream, disable cache
Read offset correction : 6
Overread into Lead-In and Lead-Out : No

Used output format : Internal WAV Routines
44.100 Hz; 16 Bit; Stereo

Other options :
Fill up missing offset samples with silence : Yes
Delete leading and trailing silent blocks : No
Native Win32 interface for Win NT & 2000

Track 1
Filename C:\Documents and Settings\Desktop\01-Mary Pickford.wav

Peak level 99.2 %
Track quality 100.0 %
Copy CRC D7D8F833
Copy OK

Track 2
Filename C:\Documents and Settings\Desktop\02-It's All In My Head.wav

Peak level 99.1 %
Track quality 100.0 %
Copy CRC 416583FC
Copy OK

Track 3
Filename C:\Documents and Settings\Desktop\03-If The Lights Go Out.wav

Peak level 99.4 %
Track quality 100.0 %
Copy CRC 98DED3DE
Copy OK

Track 4
Filename C:\Documents and Settings\Desktop\04-What I Miss About You.wav

Peak level 99.3 %
Track quality 99.9 %
Copy CRC CC2C7F05
Copy OK

Track 5
Filename C:\Documents and Settings\Desktop\05-Spellbound.wav

Peak level 96.0 %
Track quality 100.0 %
Copy CRC C9B6D767
Copy OK

Track 6
Filename C:\Documents and Settings\Desktop\06-What It Says On The Tin.wav

Peak level 99.1 %
Track quality 100.0 %
Copy CRC 572E38BF
Copy OK

Track 7
Filename C:\Documents and Settings\Desktop\07-Scary Films.wav

Peak level 99.8 %
Track quality 100.0 %
Copy CRC 14717307
Copy OK

Track 8
Filename C:\Documents and Settings\Desktop\08-Perfect Circle.wav

Peak level 96.1 %
Track quality 100.0 %
Copy CRC 169E6E6E
Copy OK

Track 9
Filename C:\Documents and Settings\Desktop\09-Ghost Town.wav

Peak level 99.2 %
Track quality 100.0 %
Copy CRC 5CC1BFDA
Copy OK

Track 10
Filename C:\Documents and Settings\Kubrat Parvanov\Desktop\10-If You Were A Sail Boat.wav

Peak level 99.2 %
Track quality 100.0 %
Copy CRC 32A95A47
Copy OK

Track 11
Filename C:\Documents and Settings\Desktop\11-Dirty Dice.wav

Peak level 96.1 %
Track quality 100.0 %
Copy CRC A1E481EE
Copy OK

Track 12
Filename C:\Documents and Settings\Desktop\12-In My Secret Life.wav

Peak level 99.9 %
Track quality 100.0 %
Copy CRC 382BCF6D
Copy OK

No errors occured

End of status report
The Katie Melua Collection

Жанр: Jazz/Blues/Pop
Год выпуска диска: 2008
Label: Dramatico
Аудио кодек: ALAC
Тип рипа: tracks
Битрейт аудио: lossless
Продолжительность: 01:01:54
Трэклист:

1. The Closest Thing To Crazy
2. Nine Million Bicycles
3. What A Wonderful World
(duet with Eva Cassidy)
4. If You Were A Sailboat
5. Piece By Piece
6. Call Off The Search
7. On The Road Again
8. Mary Pickford
9. Spider's Web
10. Thank You, Stars
11. I Cried For You
12. Crawling Up A Hill
13. Tiger In The Night
14. When You Taught Me How To Dance
15. Two Bare Feet
16. Toy Collection
17. Somewhere In The Same Hotel
Exact Audio Copy V0.99 prebeta 4 from 23. January 2008

EAC extraction logfile from 2. December 2008, 20:16

Katie Melua / The Katie Melua Collection

Used drive : LITE-ON DVDRW LH-20A1S Adapter: 2 ID: 0

Read mode : Secure
Utilize accurate stream : Yes
Defeat audio cache : Yes
Make use of C2 pointers : No

Read offset correction : 6
Overread into Lead-In and Lead-Out : No
Fill up missing offset samples with silence : Yes
Delete leading and trailing silent blocks : No
Null samples used in CRC calculations : Yes
Used interface : Native Win32 interface for Win NT & 2000

Used output format : Internal WAV Routines
Sample format : 44.100 Hz; 16 Bit; Stereo

TOC of the extracted CD

Track | Start | Length | Start sector | End sector
---------------------------------------------------------
1 | 0:00.00 | 4:15.08 | 0 | 19132
2 | 4:15.08 | 3:17.12 | 19133 | 33919
3 | 7:32.20 | 4:19.36 | 33920 | 53380
4 | 11:51.56 | 4:01.30 | 53381 | 71485
5 | 15:53.11 | 3:24.46 | 71486 | 86831
6 | 19:17.57 | 3:25.26 | 86832 | 102232
7 | 22:43.08 | 4:38.45 | 102233 | 123127
8 | 27:21.53 | 3:13.39 | 123128 | 137641
9 | 30:35.17 | 3:56.67 | 137642 | 155408
10 | 34:32.09 | 3:40.25 | 155409 | 171933
11 | 38:12.34 | 3:38.43 | 171934 | 188326
12 | 41:51.02 | 3:25.45 | 188327 | 203746
13 | 45:16.47 | 3:08.72 | 203747 | 217918
14 | 48:25.44 | 3:24.11 | 217919 | 233229
15 | 51:49.55 | 3:00.09 | 233230 | 246738
16 | 54:49.64 | 3:13.30 | 246739 | 261243
17 | 58:03.19 | 3:50.64 | 261244 | 278557

Range status and errors

Selected range

Filename E:\Downloads\Katie Melua - The Katie Melua Collection.wav

Peak level 99.4 %
Range quality 100.0 %
Copy CRC 3C5E0B79
Copy OK

No errors occurred

AccurateRip summary

Track 1 accurately ripped (confidence 4) [DAF74532]
Track 2 accurately ripped (confidence 4) [135F7E7D]
Track 3 accurately ripped (confidence 4) [E9D51CDE]
Track 4 accurately ripped (confidence 4) [9C813DDB]
Track 5 accurately ripped (confidence 4) [53B8AB89]
Track 6 accurately ripped (confidence 4) [90A23BEA]
Track 7 accurately ripped (confidence 5) [545DE431]
Track 8 accurately ripped (confidence 4) [1A0F272D]
Track 9 accurately ripped (confidence 4) [977E7C29]
Track 10 accurately ripped (confidence 4) [0E2D3B2B]
Track 11 accurately ripped (confidence 4) [AEFCAB86]
Track 12 accurately ripped (confidence 4) [9E978921]
Track 13 accurately ripped (confidence 4) [3C6101C4]
Track 14 accurately ripped (confidence 4) [F6A59C81]
Track 15 accurately ripped (confidence 4) [587991FD]
Track 16 accurately ripped (confidence 5) [35C6E76F]
Track 17 accurately ripped (confidence 5) [C1977D37]

All tracks accurately ripped

End of status report
Live at the O2 Arena

Жанр: Jazz/Blues/Pop
Год выпуска диска: 2009
Label: Dramatico
Аудио кодек: ALAC
Тип рипа: tracks
Битрейт аудио: lossless
Продолжительность: 01:17:53
Трэклист:

01. Piece by piece [03:19]
02. Lilac wine [04:08]
03. Kviteli potlebi [02:54]
04. My aphrodisiac is you [04:20]
05. Crawling up a hill [03:25]
06. Mary pickford [03:15]
07. Blues in the night [04:20]
08. If you were a sailboat [03:57]
09. Ghost town [03:41]
10. Perfect circle [07:12]
11. Spider's web [03:58]
12. Toy collection [03:15]
13. Scary films [04:08]
14. Mockingbird song [04:16]
15. The closest thing to crazy [04:16]
16. Nine million bicycles [03:35]
17. On the road again [04:56]
18. Kozmic blues [05:19]
19. I cried for you [03:31]
Exact Audio Copy V0.99 prebeta 4 from 23. January 2008

Отчёт EAC об извлечении, выполненном 10. марта 2009, 21:53

Katie Melua / Live At The O2 Arena

Дисковод: ASUS DRW-2014L1 Adapter: 0 ID: 0

Режим чтения : Достоверность
Использование точного потока : Да
Отключение кэша аудио : Да
Использование указателей C2 : Нет

Коррекция смещения при чтении : 6
Способность читать области Lead-in и Lead-out : Нет
Заполнение пропущенных сэмплов тишиной : Да
Удаление блоков с тишиной в начале и конце : Нет
При вычислениях CRC использовались нулевые сэмплы : Да
Интерфейс : Встроенный Win32-интерфейс для Win NT/2000

Выходной формат : Внутренние WAV-операции
Формат сэмплов : 44.100 Гц; 16 бит; стерео

TOC извлечённого CD

Трек | Старт | Длительность | Начальный сектор | Конечный сектор
---------------------------------------------------------------------
1 | 0:00.00 | 3:19.25 | 0 | 14949
2 | 3:19.25 | 4:07.73 | 14950 | 33547
3 | 7:27.23 | 2:54.64 | 33548 | 46661
4 | 10:22.12 | 4:20.46 | 46662 | 66207
5 | 14:42.58 | 3:25.63 | 66208 | 81645
6 | 18:08.46 | 3:14.74 | 81646 | 96269
7 | 21:23.45 | 4:20.18 | 96270 | 115787
8 | 25:43.63 | 3:57.48 | 115788 | 133610
9 | 29:41.36 | 3:41.22 | 133611 | 150207
10 | 33:22.58 | 7:12.19 | 150208 | 182626
11 | 40:35.02 | 3:58.00 | 182627 | 200476
12 | 44:33.02 | 3:15.04 | 200477 | 215105
13 | 47:48.06 | 4:08.33 | 215106 | 233738
14 | 51:56.39 | 4:15.72 | 233739 | 252935
15 | 56:12.36 | 4:16.57 | 252936 | 272192
16 | 60:29.18 | 3:35.53 | 272193 | 288370
17 | 64:04.71 | 4:56.50 | 288371 | 310620
18 | 69:01.46 | 5:19.42 | 310621 | 334587
19 | 74:21.13 | 3:31.18 | 334588 | 350430

Характеристики диапазона извлечения и сообщения об ошибках

Выбранный диапазон

Имя файла H:\MUSIC\Mainstream\Katie Melua\Live at the O2 area\Katie Melua - Live At The O2 Arena.wav

Пиковый уровень 100.0 %
Качество диапазона 100.0 %
CRC теста 5B7945A7
CRC копии 5B7945A7
Копирование... OK

Ошибок не произошло

AccurateRip: сводка

Трек 1 точное извлечение (доверие 11) [029F15D5]
Трек 2 точное извлечение (доверие 11) [823635F0]
Трек 3 точное извлечение (доверие 11) [1D134CE6]
Трек 4 точное извлечение (доверие 11) [CF4BB87D]
Трек 5 точное извлечение (доверие 11) [DBFC1D12]
Трек 6 точное извлечение (доверие 11) [60BBACFD]
Трек 7 точное извлечение (доверие 11) [C721C3A9]
Трек 8 точное извлечение (доверие 11) [D7A4EFC4]
Трек 9 точное извлечение (доверие 11) [A397A583]
Трек 10 точное извлечение (доверие 11) [8B92E703]
Трек 11 точное извлечение (доверие 11) [1C5B94B6]
Трек 12 точное извлечение (доверие 11) [319C4DE1]
Трек 13 точное извлечение (доверие 11) [1EAFABB1]
Трек 14 точное извлечение (доверие 11) [68E06C89]
Трек 15 точное извлечение (доверие 11) [01CCF32E]
Трек 16 точное извлечение (доверие 11) [70425606]
Трек 17 точное извлечение (доверие 11) [E2503195]
Трек 18 точное извлечение (доверие 11) [7634D709]
Трек 19 точное извлечение (доверие 11) [724CCDE3]

Все треки извлечены точно

Конец отчёта
The House

Жанр: Jazz/Blues/Pop
Год выпуска диска: 2010
Label: Dramatico
Аудио кодек: ALAC
Тип рипа: tracks
Битрейт аудио: lossless
Продолжительность: 45:45
Трэклист:

01. I'd Love To Kill You (2:58)
02. The Flood (4:04)
03. A Happy Place (3:27)
04. A Moment Of Madness (3:47)
05. Red Balloons (4:20)
06. Tiny Alien (4:36)
07. No Fear Of Heights (2:54)
08. The One I Love Is Gone (3:39)
09. Plague Of Love (3:26)
10. God On The Drums, Devil On The Bass (3:48)
11. Twisted (3:44)
12. The House (5:01)
X Lossless Decoder version 20100518 (120.3)

XLD extraction logfile from 2010-05-19 16:08:25 +0200

Katie Melua / The House

Used drive : PHILIPS SPD3400CC (revision JP03)

Use cdparanoia mode : YES (CDParanoia III 10.2 engine)
Disable audio cache : OK for the drive with cache less than 2750KB
Make use of C2 pointers : NO
Read offset correction : 6
Max retry count : 100

TOC of the extracted CD
Track | Start | Length | Start sector | End sector
---------------------------------------------------------
1 | 00:00:00 | 02:57:38 | 0 | 13312
2 | 02:57:38 | 04:03:53 | 13313 | 31590
3 | 07:01:16 | 03:27:16 | 31591 | 47131
4 | 10:28:32 | 03:47:34 | 47132 | 64190
5 | 14:15:66 | 04:20:09 | 64191 | 83699
6 | 18:36:00 | 04:36:01 | 83700 | 104400
7 | 23:12:01 | 02:53:67 | 104401 | 117442
8 | 26:05:68 | 03:38:46 | 117443 | 133838
9 | 29:44:39 | 03:26:33 | 133839 | 149321
10 | 33:10:72 | 03:48:32 | 149322 | 166453
11 | 36:59:29 | 03:44:25 | 166454 | 183278
12 | 40:43:54 | 05:00:61 | 183279 | 205839

Track 01
Filename : /01 - I'd Love To Kill You.flac

Pre-gap length : 00:02:00

CRC32 hash (test run) : 060E3226
CRC32 hash : 060E3226
CRC32 hash (skip zero) : CCB187BE
AccurateRip signature : 090A5FFE
->Track not present in AccurateRip database.
Statistics
Read error : 0
Skipped (treated as error) : 0
Edge jitter error (maybe fixed) : 0
Atom jitter error (maybe fixed) : 0
Drift error (maybe fixed) : 0
Dropped bytes error (maybe fixed) : 0
Duplicated bytes error (maybe fixed) : 0
Inconsistency in error sectors : 0

Track 02
Filename : /02 - The Flood.flac

Pre-gap length : 00:00:25

CRC32 hash (test run) : 336181B2
CRC32 hash : 336181B2
CRC32 hash (skip zero) : B86510C1
AccurateRip signature : D4400110
->Track not present in AccurateRip database.
Statistics
Read error : 0
Skipped (treated as error) : 0
Edge jitter error (maybe fixed) : 0
Atom jitter error (maybe fixed) : 0
Drift error (maybe fixed) : 0
Dropped bytes error (maybe fixed) : 0
Duplicated bytes error (maybe fixed) : 0
Inconsistency in error sectors : 0

Track 03
Filename : /03 - A Happy Place.flac

Pre-gap length : 00:01:00

CRC32 hash (test run) : 99D5147A
CRC32 hash : 99D5147A
CRC32 hash (skip zero) : CDF132CA
AccurateRip signature : F19431D5
->Track not present in AccurateRip database.
Statistics
Read error : 0
Skipped (treated as error) : 0
Edge jitter error (maybe fixed) : 0
Atom jitter error (maybe fixed) : 0
Drift error (maybe fixed) : 0
Dropped bytes error (maybe fixed) : 0
Duplicated bytes error (maybe fixed) : 0
Inconsistency in error sectors : 0

Track 04
Filename : /04 - A Moment Of Madness.flac

Pre-gap length : 00:00:70

CRC32 hash (test run) : BFB58D0C
CRC32 hash : BFB58D0C
CRC32 hash (skip zero) : 9B60F68F
AccurateRip signature : 0B7373C3
->Track not present in AccurateRip database.
Statistics
Read error : 0
Skipped (treated as error) : 0
Edge jitter error (maybe fixed) : 0
Atom jitter error (maybe fixed) : 0
Drift error (maybe fixed) : 0
Dropped bytes error (maybe fixed) : 0
Duplicated bytes error (maybe fixed) : 0
Inconsistency in error sectors : 0

Track 05
Filename : /05 - Red Balloons.flac

Pre-gap length : 00:01:12

CRC32 hash (test run) : 6C10EA32
CRC32 hash : 6C10EA32
CRC32 hash (skip zero) : 6CFD55E8
AccurateRip signature : CA2DDBB4
->Track not present in AccurateRip database.
Statistics
Read error : 0
Skipped (treated as error) : 0
Edge jitter error (maybe fixed) : 0
Atom jitter error (maybe fixed) : 0
Drift error (maybe fixed) : 0
Dropped bytes error (maybe fixed) : 0
Duplicated bytes error (maybe fixed) : 0
Inconsistency in error sectors : 0

Track 06
Filename : /06 - Tiny Alien.flac

Pre-gap length : 00:01:08

CRC32 hash (test run) : 71C24374
CRC32 hash : 71C24374
CRC32 hash (skip zero) : C774FF8E
AccurateRip signature : 4C6B3DD8
->Track not present in AccurateRip database.
Statistics
Read error : 0
Skipped (treated as error) : 0
Edge jitter error (maybe fixed) : 0
Atom jitter error (maybe fixed) : 0
Drift error (maybe fixed) : 0
Dropped bytes error (maybe fixed) : 0
Duplicated bytes error (maybe fixed) : 0
Inconsistency in error sectors : 0

Track 07
Filename : /07 - No Fear Of Heights.flac

Pre-gap length : 00:01:73

CRC32 hash (test run) : BD94F0AC
CRC32 hash : BD94F0AC
CRC32 hash (skip zero) : 01D1E6FC
AccurateRip signature : 2331A68E
->Track not present in AccurateRip database.
Statistics
Read error : 0
Skipped (treated as error) : 0
Edge jitter error (maybe fixed) : 0
Atom jitter error (maybe fixed) : 0
Drift error (maybe fixed) : 0
Dropped bytes error (maybe fixed) : 0
Duplicated bytes error (maybe fixed) : 0
Inconsistency in error sectors : 0

Track 08
Filename : /08 - The One I Love Is Gone.flac

Pre-gap length : 00:01:44

CRC32 hash (test run) : 552DB42A
CRC32 hash : 552DB42A
CRC32 hash (skip zero) : 0A1722F0
AccurateRip signature : EEA5D7D6
->Track not present in AccurateRip database.
Statistics
Read error : 0
Skipped (treated as error) : 0
Edge jitter error (maybe fixed) : 0
Atom jitter error (maybe fixed) : 0
Drift error (maybe fixed) : 0
Dropped bytes error (maybe fixed) : 0
Duplicated bytes error (maybe fixed) : 0
Inconsistency in error sectors : 0

Track 09
Filename : /09 - Plague Of Love.flac

Pre-gap length : 00:01:32

CRC32 hash (test run) : 52AFEA07
CRC32 hash : 52AFEA07
CRC32 hash (skip zero) : 9D8A1750
AccurateRip signature : 97F48E9E
->Track not present in AccurateRip database.
Statistics
Read error : 0
Skipped (treated as error) : 0
Edge jitter error (maybe fixed) : 0
Atom jitter error (maybe fixed) : 0
Drift error (maybe fixed) : 0
Dropped bytes error (maybe fixed) : 0
Duplicated bytes error (maybe fixed) : 0
Inconsistency in error sectors : 0

Track 10
Filename : /10 - God On The Drums, Devil On The Bass.flac

Pre-gap length : 00:01:13

CRC32 hash (test run) : 4EBE8D0B
CRC32 hash : 4EBE8D0B
CRC32 hash (skip zero) : 0D6F4051
AccurateRip signature : 788A8DF3
->Track not present in AccurateRip database.
Statistics
Read error : 0
Skipped (treated as error) : 0
Edge jitter error (maybe fixed) : 0
Atom jitter error (maybe fixed) : 0
Drift error (maybe fixed) : 0
Dropped bytes error (maybe fixed) : 0
Duplicated bytes error (maybe fixed) : 0
Inconsistency in error sectors : 0

Track 11
Filename : /11 - Twisted.flac

Pre-gap length : 00:02:04

CRC32 hash (test run) : E2027862
CRC32 hash : E2027862
CRC32 hash (skip zero) : 355D371E
AccurateRip signature : 853BABC8
->Track not present in AccurateRip database.
Statistics
Read error : 0
Skipped (treated as error) : 0
Edge jitter error (maybe fixed) : 0
Atom jitter error (maybe fixed) : 0
Drift error (maybe fixed) : 0
Dropped bytes error (maybe fixed) : 0
Duplicated bytes error (maybe fixed) : 0
Inconsistency in error sectors : 0

Track 12
Filename : /12 - The House.flac

Pre-gap length : 00:02:35

CRC32 hash (test run) : 532143E9
CRC32 hash : 532143E9
CRC32 hash (skip zero) : DA882EFE
AccurateRip signature : 71011EBE
->Track not present in AccurateRip database.
Statistics
Read error : 0
Skipped (treated as error) : 0
Edge jitter error (maybe fixed) : 0
Atom jitter error (maybe fixed) : 0
Drift error (maybe fixed) : 0
Dropped bytes error (maybe fixed) : 0
Duplicated bytes error (maybe fixed) : 0
Inconsistency in error sectors : 0

No errors occurred

End of status report
Secret Symphony

Жанр: Jazz/Blues/Pop
Год выпуска диска: 2012
Label: Dramatico
Аудио кодек: ALAC
Тип рипа: tracks
Битрейт аудио: lossless
Продолжительность: 37:40
Трэклист:

01. Gold In Them Hills 03:31
02. Better Than A Dream 03:10
03. The Bit That I Don t Get 03:13
04. Moonshine 02:42
05. Forgetting All My Troubles 03:23
06. All Over The World 02:56
07. Nobody Knows You When You re Down And Out 04:34
08. The Cry Of The Lone Wolf 03:59
09. Heartstings 02:54
10. The Walls Of The World 03:26
11. Secret Symphony 03:52
Exact Audio Copy V1.0 beta 3 from 29. August 2011

EAC extraction logfile from 2. March 2012, 15:08

Katie Melua / Secret Symphony

Used drive : TSSTcorpCDDVDW SH-S203D Adapter: 2 ID: 0

Read mode : Secure
Utilize accurate stream : Yes
Defeat audio cache : Yes
Make use of C2 pointers : No

Read offset correction : 6
Overread into Lead-In and Lead-Out : No
Fill up missing offset samples with silence : Yes
Delete leading and trailing silent blocks : No
Null samples used in CRC calculations : Yes
Used interface : Native Win32 interface for Win NT & 2000
Gap handling : Appended to previous track

Used output format : User Defined Encoder
Selected bitrate : 768 kBit/s
Quality : High
Add ID3 tag : No
Command line compressor : C:\Users\Felix\Desktop\ÄppZ\Audio Encoders\flac-1.2.1b-icl\flac.exe
Additional command line options : -8 -V -T "ARTIST=%artist%" -T "TITLE=%title%" -T "ALBUM=%albumtitle%" -T "DATE=%year%" -T "TRACKNUMBER=%tracknr%" -T "GENRE=%genre%" -T "PERFORMER=%albuminterpret%" -T "COMPOSER=%composer%" %haslyrics%--tag-from-file=LYRICS="%lyricsfile%"%haslyrics% -T "ALBUMARTIST=%albumartist%" -T "DISCNUMBER=%cdnumber%" -T "TOTALDISCS=%totalcds%" -T "TOTALTRACKS=%numtracks%" -T "COMMENT=%comment%" %source% -o %dest%

TOC of the extracted CD

Track | Start | Length | Start sector | End sector
---------------------------------------------------------
1 | 0:00.00 | 3:31.13 | 0 | 15837
2 | 3:31.13 | 3:10.05 | 15838 | 30092
3 | 6:41.18 | 3:12.57 | 30093 | 44549
4 | 9:54.00 | 2:41.67 | 44550 | 56691
5 | 12:35.67 | 3:22.67 | 56692 | 71908
6 | 15:58.59 | 2:55.72 | 71909 | 85105
7 | 18:54.56 | 4:33.36 | 85106 | 105616
8 | 23:28.17 | 3:59.22 | 105617 | 123563
9 | 27:27.39 | 2:53.41 | 123564 | 136579
10 | 30:21.05 | 3:25.36 | 136580 | 151990
11 | 33:46.41 | 3:51.52 | 151991 | 169367

Track 1

Filename D:\new rips\- CD\Katie Melua - Secret Symphony (2011)\01. Gold in Them Hills.wav

Pre-gap length 0:00:02.00

Peak level 98.8 %
Extraction speed 1.5 X
Track quality 99.9 %
Test CRC 73795A59
Copy CRC 73795A59
Track not present in AccurateRip database
Copy OK

Track 2

Filename D:\new rips\- CD\Katie Melua - Secret Symphony (2011)\02. Better Than a Dream.wav

Peak level 98.1 %
Extraction speed 1.8 X
Track quality 100.0 %
Test CRC 3E89C6E7
Copy CRC 3E89C6E7
Track not present in AccurateRip database
Copy OK

Track 3

Filename D:\new rips\- CD\Katie Melua - Secret Symphony (2011)\03. The Bit That I Don't Get.wav

Peak level 97.7 %
Extraction speed 2.0 X
Track quality 100.0 %
Test CRC 991B6E2B
Copy CRC 991B6E2B
Track not present in AccurateRip database
Copy OK

Track 4

Filename D:\new rips\- CD\Katie Melua - Secret Symphony (2011)\04. Moonshine.wav

Peak level 97.6 %
Extraction speed 2.0 X
Track quality 100.0 %
Test CRC 5231961F
Copy CRC 5231961F
Track not present in AccurateRip database
Copy OK

Track 5

Filename D:\new rips\- CD\Katie Melua - Secret Symphony (2011)\05. Forgetting All My Troubles.wav

Peak level 96.8 %
Extraction speed 2.2 X
Track quality 100.0 %
Test CRC F174C2B5
Copy CRC F174C2B5
Track not present in AccurateRip database
Copy OK

Track 6

Filename D:\new rips\- CD\Katie Melua - Secret Symphony (2011)\06. All Over the World.wav

Peak level 91.8 %
Extraction speed 1.8 X
Track quality 99.9 %
Test CRC 2DE1FCCF
Copy CRC 2DE1FCCF
Track not present in AccurateRip database
Copy OK

Track 7

Filename D:\new rips\- CD\Katie Melua - Secret Symphony (2011)\07. Nobody Knows You when You're Down and Out.wav

Peak level 98.5 %
Extraction speed 2.6 X
Track quality 100.0 %
Test CRC 4923D362
Copy CRC 4923D362
Track not present in AccurateRip database
Copy OK

Track 8

Filename D:\new rips\- CD\Katie Melua - Secret Symphony (2011)\08. The Cry of the Lone Wolf.wav

Peak level 96.3 %
Extraction speed 2.7 X
Track quality 100.0 %
Test CRC B68C843D
Copy CRC B68C843D
Track not present in AccurateRip database
Copy OK

Track 9

Filename D:\new rips\- CD\Katie Melua - Secret Symphony (2011)\09. Heartstrings.wav

Peak level 96.9 %
Extraction speed 2.6 X
Track quality 100.0 %
Test CRC F9617221
Copy CRC F9617221
Track not present in AccurateRip database
Copy OK

Track 10

Filename D:\new rips\- CD\Katie Melua - Secret Symphony (2011)\10. The Walls of the World.wav

Peak level 98.1 %
Extraction speed 2.2 X
Track quality 99.9 %
Test CRC 558A1185
Copy CRC 558A1185
Track not present in AccurateRip database
Copy OK

Track 11

Filename D:\new rips\- CD\Katie Melua - Secret Symphony (2011)\11. Secret Symphony.wav

Peak level 96.2 %
Extraction speed 3.0 X
Track quality 100.0 %
Test CRC 9E0B75B5
Copy CRC 9E0B75B5
Track not present in AccurateRip database
Copy OK

None of the tracks are present in the AccurateRip database

No errors occurred

End of status report

---- CUETools DB Plugin V2.1.3

[CTDB TOCID: KxMXxyhku960UjOp_AjGlSxfMkM-] found, Submit result: KxMXxyhku960UjOp_AjGlSxfMkM- has been confirmed
[9c3af5b8] (2/2) Accurately ripped

==== Log checksum BECA5E95C71845971718D0D88F40C216035997B517045CA2AA87010D1CA8C6E6 ====
Синглы:
The Closest Thing To Crazy

Жанр: Jazz/Blues/Pop
Год выпуска диска: 2003
Label: Dramatico
Аудио кодек: ALAC
Тип рипа: tracks
Битрейт аудио: lossless
Продолжительность: 11:28
Трэклист:

01. The Closest Thing To Crazy
02. Downstairs To The Sun
03. Thank You, Stars
Exact Audio Copy V0.99 prebeta 5 from 4. May 2009

EAC extraction logfile from 16. May 2009, 18:41

Katie Melua / The Closest Thing To Crazy

Used drive : PIONEER DVD-RW DVR-112D Adapter: 0 ID: 0

Read mode : Secure
Utilize accurate stream : Yes
Defeat audio cache : Yes
Make use of C2 pointers : No

Read offset correction : 48
Overread into Lead-In and Lead-Out : No
Fill up missing offset samples with silence : Yes
Delete leading and trailing silent blocks : No
Null samples used in CRC calculations : Yes
Used interface : Native Win32 interface for Win NT & 2000
Gap handling : Appended to previous track

Used output format : User Defined Encoder
Selected bitrate : 768 kBit/s
Quality : High
Add ID3 tag : No
Command line compressor : C:\Program Files\Exact Audio Copy\FLAC\FLAC.EXE
Additional command line options : -V -8 -T "artist=%a" -T "title=%t" -T "album=%g" -T "date=%y" -T "tracknumber=%n" -T "genre=%m" %s

TOC of the extracted CD

Track | Start | Length | Start sector | End sector
---------------------------------------------------------
1 | 0:00.00 | 4:13.48 | 0 | 19022
2 | 4:13.48 | 3:34.28 | 19023 | 35100
3 | 7:48.01 | 3:40.54 | 35101 | 51654
4 | 14:00.55 | 7:25.68 | 63055 | 96497

Track 1

Filename D:\audio-rips\Katie Melua - The Closest Thing To Crazy\01 - The Closest Thing To Crazy.wav

Pre-gap length 0:00:02.00

Peak level 98.8 %
Track quality 100.0 %
Test CRC A024989B
Copy CRC A024989B
Accurately ripped (confidence 9) [EDD31266]
Copy OK

Track 2

Filename D:\audio-rips\Katie Melua - The Closest Thing To Crazy\02 - Downstairs To The Sun.wav

Pre-gap length 0:00:01.00

Peak level 98.8 %
Track quality 100.0 %
Test CRC AAFB2237
Copy CRC AAFB2237
Accurately ripped (confidence 8) [37C541C1]
Copy OK

Track 3

Filename D:\audio-rips\Katie Melua - The Closest Thing To Crazy\03 - Thank You, Stars.wav

Pre-gap length 0:00:01.00

Peak level 98.8 %
Track quality 100.0 %
Test CRC 3DCE416A
Copy CRC 3DCE416A
Accurately ripped (confidence 8) [E4748DBE]
Copy OK

All tracks accurately ripped

No errors occurred

End of status report
Crawling Up A Hill

Жанр: Jazz/Blues/Pop
Год выпуска диска: 2004
Label: Dramatico
Аудио кодек: ALAC
Тип рипа: tracks
Битрейт аудио: lossless
Продолжительность: 10:04
Трэклист:

01. Crawling Up A Hill
02. Crawling Up A Hill (Live Version)
03. Jack's Room
X Lossless Decoder version 20091212 (114.6)

XLD extraction logfile from 2009-12-22 18:29:30 +0100

Katie Melua / Crawling Up A Hill (Single)

Used drive : HL-DT-ST DVDRW GWA4080MA (revision AE39)

Use cdparanoia mode : YES (CDParanoia III 10.2 engine)
Disable audio cache : OK for the drive with cache less than 2750KB
Make use of C2 pointers : NO
Read offset correction : 667
Max retry count : 100

TOC of the extracted CD
Track | Start | Length | Start sector | End sector
---------------------------------------------------------
1 | 00:00:00 | 03:28:60 | 0 | 15659
2 | 03:28:60 | 03:18:65 | 15660 | 30574
3 | 06:47:50 | 03:16:55 | 30575 | 45329
4 | 12:36:30 | 06:56:31 | 56730 | 87960

All Tracks
Album gain : -5.64 dB
Peak : 1.000000

Track 01
Filename : /Users/ness/Downloads/01 Katie Melua - Crawling Up A Hill.flac

Track gain : -4.60 dB
Peak : 1.000000
CRC32 hash (test run) : AED3F625
CRC32 hash : AED3F625
CRC32 hash (skip zero) : 20DC6824
AccurateRip signature : 94984D74
->Track not present in AccurateRip database.
Statistics
Read error : 0
Skipped (treated as error) : 0
Edge jitter error (maybe fixed) : 0
Atom jitter error (maybe fixed) : 0
Drift error (maybe fixed) : 0
Dropped bytes error (maybe fixed) : 0
Duplicated bytes error (maybe fixed) : 0
Inconsistency in error sectors : 0

Track 02
Filename : /Users/ness/Downloads/02 Katie Melua - Crawling Up A Hill (Live Version).flac

Track gain : -5.51 dB
Peak : 1.000000
CRC32 hash (test run) : E790FF12
CRC32 hash : E790FF12
CRC32 hash (skip zero) : 69340BF9
AccurateRip signature : F22F6EB5
->Track not present in AccurateRip database.
Statistics
Read error : 0
Skipped (treated as error) : 0
Edge jitter error (maybe fixed) : 0
Atom jitter error (maybe fixed) : 0
Drift error (maybe fixed) : 0
Dropped bytes error (maybe fixed) : 0
Duplicated bytes error (maybe fixed) : 0
Inconsistency in error sectors : 0

Track 03
Filename : /Users/ness/Downloads/03 Katie Melua - Jack's Room.flac

Track gain : -6.53 dB
Peak : 0.968201
CRC32 hash (test run) : E730DCCD
CRC32 hash : E730DCCD
CRC32 hash (skip zero) : 5886C9E9
AccurateRip signature : D0CE9D95
->Track not present in AccurateRip database.
Statistics
Read error : 0
Skipped (treated as error) : 0
Edge jitter error (maybe fixed) : 0
Atom jitter error (maybe fixed) : 0
Drift error (maybe fixed) : 0
Dropped bytes error (maybe fixed) : 0
Duplicated bytes error (maybe fixed) : 0
Inconsistency in error sectors : 0

No errors occurred

End of status report
Nine Million Bicycles

Жанр: Jazz/Blues/Pop
Год выпуска диска: 2005
Label: Dramatico
Аудио кодек: ALAC
Тип рипа: tracks
Битрейт аудио: lossless
Продолжительность: 11:28
Трэклист:

01. Nine Million Bicycles
02. Market Day In Guernica
03. Stardust
Exact Audio Copy V0.99 prebeta 5 from 4. May 2009

EAC extraction logfile from 2. March 2010, 17:04

Katie Melua / Nine Million Bicycles

Used drive : TSSTcorpCD/DVDW TS-H552L Adapter: 0 ID: 0

Read mode : Secure
Utilize accurate stream : Yes
Defeat audio cache : Yes
Make use of C2 pointers : No

Read offset correction : 6
Overread into Lead-In and Lead-Out : No
Fill up missing offset samples with silence : Yes
Delete leading and trailing silent blocks : No
Null samples used in CRC calculations : Yes
Used interface : Native Win32 interface for Win NT & 2000
Gap handling : Appended to previous track

Used output format : User Defined Encoder
Selected bitrate : 1024 kBit/s
Quality : High
Add ID3 tag : No
Command line compressor : C:\Program Files\Exact Audio Copy\Flac\flac.exe
Additional command line options : -V -8 -T "artist=%a" -T "title=%t" -T "album=%g" -T "date=%y" -T "tracknumber=%n" -T "genre=%m" %s

TOC of the extracted CD

Track | Start | Length | Start sector | End sector
---------------------------------------------------------
1 | 0:00.00 | 3:15.12 | 0 | 14636
2 | 3:15.12 | 4:02.15 | 14637 | 32801
3 | 7:17.27 | 4:10.68 | 32802 | 51619

Track 1

Filename K:\What.CD\Upload\Katie Melua - Nine Million Bicycles [DRAMCDS0012] (100% FLAC)\01 - Nine Million Bicycles.wav

Pre-gap length 0:00:02.00

Peak level 98.0 %
Track quality 100.0 %
Test CRC 5F1BAC64
Copy CRC 5F1BAC64
Accurately ripped (confidence 9) [72B07DE5]
Copy OK

Track 2

Filename K:\What.CD\Upload\Katie Melua - Nine Million Bicycles [DRAMCDS0012] (100% FLAC)\02 - Market Day In Guernica.wav

Pre-gap length 0:00:01.02

Peak level 98.0 %
Track quality 100.0 %
Test CRC 8F8DB287
Copy CRC 8F8DB287
Accurately ripped (confidence 9) [45E9652C]
Copy OK

Track 3

Filename K:\What.CD\Upload\Katie Melua - Nine Million Bicycles [DRAMCDS0012] (100% FLAC)\03 - Stardust.wav

Pre-gap length 0:00:01.67

Peak level 97.9 %
Track quality 100.0 %
Test CRC 087DB789
Copy CRC 087DB789
Accurately ripped (confidence 9) [F6C1B179]
Copy OK

All tracks accurately ripped

No errors occurred

End of status report
Spider's Web

Жанр: Jazz/Blues/Pop
Год выпуска диска: 2006
Label: Dramatico
Аудио кодек: ALAC
Тип рипа: tracks
Битрейт аудио: lossless
Продолжительность: 10:20
Трэклист:

01. Spider's Web (Single Version)
02. Spider's Web (Album Remix)
03. Cry Baby Cry
X Lossless Decoder version 20091212 (114.6)

XLD extraction logfile from 2009-12-22 16:52:00 +0100

Katie Melua / Spider's Web (Single)

Used drive : HL-DT-ST DVDRW GWA4080MA (revision AE39)

Use cdparanoia mode : YES (CDParanoia III 10.2 engine)
Disable audio cache : OK for the drive with cache less than 2750KB
Make use of C2 pointers : NO
Read offset correction : 667
Max retry count : 100

TOC of the extracted CD
Track | Start | Length | Start sector | End sector
---------------------------------------------------------
1 | 00:00:00 | 03:59:11 | 0 | 17935
2 | 03:59:11 | 03:57:07 | 17936 | 35717
3 | 07:56:18 | 02:24:07 | 35718 | 46524
4 | 12:52:25 | 10:10:58 | 57925 | 103732

All Tracks
Album gain : -7.75 dB
Peak : 0.988831

Track 01
Filename : /Users/ness/Downloads/01 Katie Melua - Spider's Web (Single Version).flac

Track gain : -8.36 dB
Peak : 0.988770
CRC32 hash (test run) : DBB5396B
CRC32 hash : DBB5396B
CRC32 hash (skip zero) : B279EB9D
AccurateRip signature : F8C6F717
->Track not present in AccurateRip database.
Statistics
Read error : 0
Skipped (treated as error) : 0
Edge jitter error (maybe fixed) : 0
Atom jitter error (maybe fixed) : 0
Drift error (maybe fixed) : 0
Dropped bytes error (maybe fixed) : 0
Duplicated bytes error (maybe fixed) : 0
Inconsistency in error sectors : 0

Track 02
Filename : /Users/ness/Downloads/02 Katie Melua - Spider's Web (Album Remix).flac

Track gain : -7.93 dB
Peak : 0.988831
CRC32 hash (test run) : 4769A765
CRC32 hash : 4769A765
CRC32 hash (skip zero) : 175E34B2
AccurateRip signature : 95E9759C
->Track not present in AccurateRip database.
Statistics
Read error : 0
Skipped (treated as error) : 0
Edge jitter error (maybe fixed) : 0
Atom jitter error (maybe fixed) : 0
Drift error (maybe fixed) : 0
Dropped bytes error (maybe fixed) : 0
Duplicated bytes error (maybe fixed) : 0
Inconsistency in error sectors : 0

Track 03
Filename : /Users/ness/Downloads/03 Katie Melua - Cry Baby Cry.flac

Track gain : -5.01 dB
Peak : 0.988617
CRC32 hash (test run) : 6C8DFA01
CRC32 hash : 6C8DFA01
CRC32 hash (skip zero) : D82EC556
AccurateRip signature : 3D82E973
->Track not present in AccurateRip database.
Statistics
Read error : 0
Skipped (treated as error) : 0
Edge jitter error (maybe fixed) : 0
Atom jitter error (maybe fixed) : 0
Drift error (maybe fixed) : 0
Dropped bytes error (maybe fixed) : 0
Duplicated bytes error (maybe fixed) : 0
Inconsistency in error sectors : 0

No errors occurred

End of status report
If You Were A Sailboat

Жанр: Jazz/Blues/Pop
Год выпуска диска: 2007
Label: Dramatico
Аудио кодек: ALAC
Тип рипа: tracks
Битрейт аудио: lossless
Продолжительность: 14:33
Трэклист:

01. If You Were A Sailboat
02. Junk Mail
03. Straight To DVD
04. This Year's Love
Exact Audio Copy V0.99 prebeta 3 from 28. July 2007

EAC extraction logfile from 9. January 2008, 19:35

Katie Melua / If You Were A Sailboat

Used drive : PIONEER DVD-RW DVR-108 Adapter: 1 ID: 1

Read mode : Secure
Utilize accurate stream : Yes
Defeat audio cache : Yes
Make use of C2 pointers : No

Read offset correction : 48
Overread into Lead-In and Lead-Out : No
Fill up missing offset samples with silence : Yes
Delete leading and trailing silent blocks : No
Null samples used in CRC calculations : Yes
Used interface : Native Win32 interface for Win NT & 2000
Gap handling : Appended to previous track

Used output format : User Defined Encoder
Selected bitrate : 1024 kBit/s
Quality : High
Add ID3 tag : No
Command line compressor : C:\Program Files\FLAC\flac.exe
Additional command line options : -5 -V -T "artist=%a" -T "title=%t" -T "album=%g" -T "date=%y" -T "tracknumber=%n" -T "genre=%m" %s

TOC of the extracted CD

Track | Start | Length | Start sector | End sector
---------------------------------------------------------
1 | 0:00.00 | 3:38.40 | 0 | 16389
2 | 3:38.40 | 4:09.09 | 16390 | 35073
3 | 7:47.49 | 2:57.65 | 35074 | 48413
4 | 10:45.39 | 3:47.46 | 48414 | 65484

Track 1

Filename C:\01 If You Were A Sailboat.wav

Pre-gap length 0:00:02.00

Peak level 100.0 %
Track quality 100.0 %
Test CRC BA3A313F
Copy CRC BA3A313F
Accurately ripped (confidence 1) [7F557E7D]
Copy OK

Track 2

Filename C:\02 Junk Mail.wav

Pre-gap length 0:00:00.22

Peak level 98.8 %
Track quality 100.0 %
Test CRC C87866E5
Copy CRC C87866E5
Accurately ripped (confidence 1) [34DE0A99]
Copy OK

Track 3

Filename C:\03 Straight To DVD.wav

Pre-gap length 0:00:00.39

Peak level 99.4 %
Track quality 100.0 %
Test CRC F0B85E56
Copy CRC F0B85E56
Accurately ripped (confidence 1) [D659E963]
Copy OK

Track 4

Filename C:\04 This Year's Love.wav

Pre-gap length 0:00:00.48

Peak level 98.0 %
Track quality 100.0 %
Test CRC 4151168A
Copy CRC 4151168A
Accurately ripped (confidence 1) [B5CD4DB4]
Copy OK

All tracks accurately ripped

No errors occurred

End of status report
The Flood

Жанр: Jazz/Blues/Pop
Год выпуска диска: 2010
Label: Dramatico
Аудио кодек: ALAC
Тип рипа: tracks
Битрейт аудио: lossless
Продолжительность: 03:40
Трэклист:

01. The Flood (Radio Edit)
X Lossless Decoder version 20100424 (118.0)

XLD extraction logfile from 2010-04-29 18:44:14 +0200

Katie Melua / The Flood - Single

Used drive : PHILIPS SPD3400CC (revision JP03)

Use cdparanoia mode : YES (CDParanoia III 10.2 engine)
Disable audio cache : OK for the drive with cache less than 2750KB
Make use of C2 pointers : NO
Read offset correction : 6
Max retry count : 100

TOC of the extracted CD
Track | Start | Length | Start sector | End sector
---------------------------------------------------------
1 | 00:00:00 | 03:40:24 | 0 | 16523

Track 01
Filename : /01 - The Flood (Radio Edit).flac

Pre-gap length : 00:02:00

CRC32 hash (test run) : E6A759F2
CRC32 hash : E6A759F2
CRC32 hash (skip zero) : AB83B5AF
AccurateRip signature : 1C7B7F29
->Track not present in AccurateRip database.
Statistics
Read error : 0
Skipped (treated as error) : 0
Edge jitter error (maybe fixed) : 0
Atom jitter error (maybe fixed) : 0
Drift error (maybe fixed) : 0
Dropped bytes error (maybe fixed) : 0
Duplicated bytes error (maybe fixed) : 0
Inconsistency in error sectors : 0

No errors occurred

End of status report
A Happy Place

Жанр: Jazz/Blues/Pop
Год выпуска диска: 2010
Label: Dramatico
Аудио кодек: ALAC
Тип рипа: tracks
Битрейт аудио: lossless
Продолжительность: 07:47
Трэклист:

01. A Happy Place
02. A Happy Place - Sparks vs Melua)

Второй трек представляет собой ремикс ,сведенный братьями Роном и Расселлом Маэлами,составляющими легендарную группу Sparks.Доп.музыка и вокал в этом треке также их авторства.
Exact Audio Copy V0.99 prebeta 5 from 4. May 2009

EAC extraction logfile from 1. October 2010, 20:56

Katie Melua / A Happy Place

Used drive : TSSTcorpCDDVDW TS-L632N Adapter: 0 ID: 0

Read mode : Secure
Utilize accurate stream : Yes
Defeat audio cache : Yes
Make use of C2 pointers : No

Read offset correction : 6
Overread into Lead-In and Lead-Out : No
Fill up missing offset samples with silence : Yes
Delete leading and trailing silent blocks : No
Null samples used in CRC calculations : Yes
Used interface : Native Win32 interface for Win NT & 2000
Gap handling : Appended to previous track

Used output format : User Defined Encoder
Selected bitrate : 128 kBit/s
Quality : High
Add ID3 tag : No
Command line compressor : C:\Program Files\Exact Audio Copy\Flac\flac.exe
Additional command line options : -8 -V -T "ARTIST=%a" -T "TITLE=%t" -T "ALBUM=%g" -T "DATE=%y" -T "TRACKNUMBER=%n" -T "GENRE=%m" -T "COMMENT=EAC FLAC -8" %s

TOC of the extracted CD

Track | Start | Length | Start sector | End sector
---------------------------------------------------------
1 | 0:00.00 | 3:27.67 | 0 | 15591
2 | 3:27.67 | 4:19.52 | 15592 | 35068

Track 1

Filename C:\Documents and Settings\Павел\Рабочий стол\01. Katie Melua – A Happy Place.wav

Pre-gap length 0:00:02.00

Peak level 98.8 %
Track quality 99.9 %
Test CRC C9825EA8
Copy CRC C9825EA8
Copy OK

Track 2

Filename C:\Documents and Settings\Павел\Рабочий стол\02. Katie Melua – A Happy Place [Sparks Vs Melua Version].wav

Pre-gap length 0:00:00.41

Peak level 98.8 %
Track quality 99.9 %
Test CRC 2E468B94
Copy CRC 2E468B94
Copy OK

No errors occurred

End of status report


fooCDtect - foobar2000 + auCDtect, baralgin.

auCDtect: CD records authenticity detector, version 0.8.2
Copyright (c) 2004 Oleg Berngardt. All rights reserved.
Copyright (c) 2004 Alexander Djourik. All rights reserved.

mode: 0

===========================================
Track: A Happy Place [Sparks Vs Melua Version
Quality: CDDA 100%
===========================================
Track: A Happy Place
Quality: CDDA 100%
===========================================
Track: Crawling Up A Hill (Live Version)
Quality: CDDA 100%
===========================================
Track: Crawling Up A Hill
Quality: CDDA 100%
===========================================
Track: Jack's Room
Quality: CDDA 100%
===========================================
Track: If You Were A Sailboat
Quality: CDDA 100%
===========================================
Track: Junk Mail
Quality: CDDA 100%
===========================================
Track: Straight To DVD
Quality: CDDA 100%
===========================================
Track: This Year's Love
Quality: CDDA 100%
===========================================
Track: Market Day In Guernica
Quality: CDDA 99%
===========================================
Track: Nine Million Bicycles
Quality: CDDA 100%
===========================================
Track: Stardust
Quality: CDDA 100%
===========================================
Track: Cry Baby Cry
Quality: CDDA 100%
===========================================
Track: Spider's Web (Album Remix)
Quality: CDDA 100%
===========================================
Track: Spider's Web (Single Version)
Quality: CDDA 100%
===========================================
Track: Downstairs To The Sun
Quality: CDDA 100%
===========================================
Track: Thank You, Stars
Quality: CDDA 100%
===========================================
Track: The Closest Thing To Crazy
Quality: CDDA 100%
===========================================
Track: The Flood (Radio Edit)
Quality: CDDA 100%
===========================================
Track: Call Off The Search
Quality: CDDA 100%
===========================================
Track: Crawling Up A Hill
Quality: CDDA 100%
===========================================
Track: The Closest Thing To Crazy
Quality: CDDA 100%
===========================================
Track: My Aphrodisiac Is You
Quality: CDDA 100%
===========================================
Track: Learnin' The Blues
Quality: CDDA 99%
===========================================
Track: Blame It On The Moon
Quality: CDDA 100%
===========================================
Track: Belfast (Penguins And Cats)
Quality: CDDA 100%
===========================================
Track: I Think It's Going To Rain Today
Quality: CDDA 100%
===========================================
Track: Mockingbird Song
Quality: CDDA 100%
===========================================
Track: Tiger In The Night
Quality: CDDA 100%
===========================================
Track: Faraway Voice
Quality: CDDA 99%
===========================================
Track: Lilac Wine
Quality: CDDA 100%
===========================================
Track: Mary Pickford
Quality: CDDA 100%
===========================================
Track: It's All In My Head
Quality: CDDA 100%
===========================================
Track: If The Lights Go Out
Quality: CDDA 100%
===========================================
Track: What I Miss About You
Quality: CDDA 100%
===========================================
Track: Spellbound
Quality: CDDA 100%
===========================================
Track: What It Says On The Tin
Quality: CDDA 100%
===========================================
Track: Scary Films
Quality: CDDA 100%
===========================================
Track: Perfect Circle
Quality: CDDA 100%
===========================================
Track: Ghost Town
Quality: CDDA 100%
===========================================
Track: If You Were A Sailboat
Quality: CDDA 100%
===========================================
Track: Dirty Dice
Quality: CDDA 100%
===========================================
Track: In My Secret Life
Quality: CDDA 100%
===========================================
Track: Shy Boy
Quality: CDDA 100%
===========================================
Track: Nine Million Bicycles
Quality: CDDA 100%
===========================================
Track: Piece By Piece
Quality: CDDA 100%
===========================================
Track: Halfway Up The Hindu Kush
Quality: CDDA 100%
===========================================
Track: Blues In The Night
Quality: CDDA 99%
===========================================
Track: Spider's Web
Quality: CDDA 100%
===========================================
Track: Blue Shoes
Quality: CDDA 99%
===========================================
Track: On The Road Again
Quality: CDDA 100%
===========================================
Track: Thank You, Stars
Quality: CDDA 100%
===========================================
Track: Just Like Heaven
Quality: CDDA 100%
===========================================
Track: I Cried For You
Quality: CDDA 100%
===========================================
Track: I Do Believe In Love
Quality: CDDA 99%
===========================================
Track: A Happy Place
Quality: CDDA 100%
===========================================
Track: A Moment Of Madness
Quality: CDDA 100%
===========================================
Track: God On The Drums, Devil On The Bass
Quality: CDDA 100%
===========================================
Track: I'd Love To Kill You
Quality: CDDA 100%
===========================================
Track: No Fear Of Heights
Quality: CDDA 100%
===========================================
Track: Plague Of Love
Quality: CDDA 100%
===========================================
Track: Red Balloons
Quality: CDDA 100%
===========================================
Track: The Flood
Quality: CDDA 100%
===========================================
Track: The House
Quality: CDDA 100%
===========================================
Track: The One I Love Is Gone
Quality: CDDA 100%
===========================================
Track: Tiny Alien
Quality: CDDA 100%
===========================================
Track: Twisted
Quality: CDDA 100%
===========================================
fooCDtect - foobar2000 + auCDtect, baralgin.

auCDtect: CD records authenticity detector, version 0.8.2
Copyright (c) 2004 Oleg Berngardt. All rights reserved.
Copyright (c) 2004 Alexander Djourik. All rights reserved.

mode: 0

===========================================
Track: 06 - Call Off The Search
Quality: CDDA 100%
===========================================
Track: 12 - Crawling Up A Hill
Quality: CDDA 100%
===========================================
Track: 04 - If You Were A Sailboat
Quality: CDDA 100%
===========================================
Track: 07 - On The Road Again
Quality: CDDA 100%
===========================================
Track: 17 - Somewhere In The Same Hotel
Quality: CDDA 100%
===========================================
Track: 09 - Spider's Web
Quality: CDDA 100%
===========================================
Track: 10 - Thank You, Stars
Quality: CDDA 100%
===========================================
Track: 08 - Mary Pickford
Quality: CDDA 100%
===========================================
Track: 16 - Toy Collection
Quality: CDDA 100%
===========================================
Track: 11 - I Cried For You
Quality: CDDA 100%
===========================================
Track: 01 - The Closest Thing To Crazy
Quality: CDDA 100%
===========================================
Track: 03 - What A Wonderful World
Quality: CDDA 100%
===========================================
Track: 02 - Nine Million Bicycles
Quality: CDDA 100%
===========================================
Track: 15 - Two Bare Feet
Quality: CDDA 100%
===========================================
Track: 13 - Tiger In The Night
Quality: CDDA 100%
===========================================
Track: 14 - When You Taught Me How To Dance
Quality: MPEG 100%
===========================================
Track: 05 - Piece By Piece
Quality: CDDA 100%
===========================================
fooCDtect - foobar2000 + auCDtect, baralgin.

auCDtect: CD records authenticity detector, version 0.8.2
Copyright (c) 2004 Oleg Berngardt. All rights reserved.
Copyright (c) 2004 Alexander Djourik. All rights reserved.

mode: 0

===========================================
Track: 07 - Blues In The Night
Quality: CDDA 100%
===========================================
Track: 01 - Piece By Piece
Quality: CDDA 100%
===========================================
Track: 06 - Mary Pickford
Quality: CDDA 100%
===========================================
Track: 03 - Kviteli Potlebi (Yellow Leaves)
Quality: CDDA 100%
===========================================
Track: 10 - Perfect Circle
Quality: CDDA 100%
===========================================
Track: 12 - Toy Collection
Quality: CDDA 100%
===========================================
Track: 11 - Spider's Web
Quality: CDDA 100%
===========================================
Track: 13 - Scary Films
Quality: CDDA 100%
===========================================
Track: 05 - Crawling Up A Hill
Quality: CDDA 100%
===========================================
Track: 16 - Nine Million Bicycles
Quality: CDDA 100%
===========================================
Track: 17 - On The Road Again
Quality: CDDA 100%
===========================================
Track: 18 - Kosmic Blues
Quality: CDDA 100%
===========================================
Track: 19 - I Cried For You
Quality: CDDA 100%
===========================================
Track: 08 - If You Were A Sailboat
Quality: CDDA 100%
===========================================
Track: 04 - My Aphrodisiac Is You
Quality: CDDA 100%
===========================================
Track: 02 - Lilac Wine
Quality: CDDA 100%
===========================================
Track: 14 - Mockingbird Song
Quality: CDDA 100%
===========================================
Track: 09 - Ghost Town
Quality: CDDA 100%
===========================================
Track: 15 - The Closest Thing To Crazy
Quality: CDDA 100%
===========================================
fooCDtect - foobar2000 + auCDtect, baralgin.

auCDtect: CD records authenticity detector, version 0.8.2
Copyright (c) 2004 Oleg Berngardt. All rights reserved.
Copyright (c) 2004 Alexander Djourik. All rights reserved.

mode: 0

===========================================
Track: 05 - Forgetting All My Troubles
Quality: CDDA 100%
===========================================
Track: 04 - Moonshine
Quality: CDDA 100%
===========================================
Track: 01 - Gold In Them Hills
Quality: CDDA 100%
===========================================
Track: 11 - Secret Symphony
Quality: CDDA 100%
===========================================
Track: 06 - All Over the World
Quality: CDDA 100%
===========================================
Track: 10 - The Walls of the World
Quality: CDDA 100%
===========================================
Track: 03 - The Bit That I Don't Get
Quality: CDDA 100%
===========================================
Track: 08 - The Cry of the Lone Wolf
Quality: CDDA 100%
===========================================
Track: 02 - Better Than a Dream
Quality: CDDA 100%
===========================================
Track: 07 - Nobody Knows You When You're Down and Out
Quality: CDDA 100%
===========================================
Track: 09 - Heartstrings
Quality: CDDA 100%
===========================================


Трекер:  [ 06-Май-2012 14:40 ]

  

Скачать .torrent

Размер .torrent файла 21 KB


Размер: 2.4 GB
Хэш (hash) релиза: a4f2c28428f77af9a0abca5c446afa33425e8418

Еще никто не оставлял запись к записи скачать торрент Katie Melua - Дискография . Будь первым!

!Обратная связь