Скачать через торрент TchaikovskЧайковский - The Seasons Op.37a бесплатно русская версия torrent активатор

Если у вас наблюдаются проблемы со скриншотами, переходом по ссылками, скачиванием торрентов - проблемы в блокировщике рекламы AdBlock. #хорошегоДня!


Статистика раздачи
Размер:  129 MB   |    Зарегистрирован:  5 лет 5 месяцев   |    .torrent скачан:  56 раз   |   
Раздают:  2  
   
Загрузка...
 
Автор Сообщение

Galfimbul

avatar Galfimbul


Tchaikovsky - The Seasons Op. 37a

Жанр: Classical
Страна: US
Страна-производитель диска: West Germany
Год издания диска: 1982
Издатель (лейбл): Chandos
Номер по каталогу: CHAN 8349
Тип издания: оригинал
Дата записи: 1982
Аудиокодек: ALAC
Программа-риповщик: foobar2000+iTunes
Битрейт аудио: lossless
Продолжительность: 42:41
Тексты: не требуются
Наличие сканов в содержимом раздачи: нет

Треклист:
01 January 5:43
02 February 2:35
03 March 2:42
04 April 2:30
05 May 4:28
06 June 4:14
07 July 1:35
08 August 3:32
09 September 2:50
10 October 4:28
11 November 3:02
12 December 4:26
Исполнители:
Piano – Lydia Artymiw
  
Exact Audio Copy V1.0 beta 2 from 29. April 2011

EAC extraction logfile from 16. November 2011, 8:57

Tchaikovsky / The Seasons

Used drive : HL-DT-STDVDRAM GSA-H12L Adapter: 0 ID: 0

Read mode : SecureUtilize accurate stream : YesDefeat audio cache : YesMake use of C2 pointers : No

Read offset correction : 667Overread into Lead-In and Lead-Out : NoFill up missing offset samples with silence : YesDelete leading and trailing silent blocks : NoNull samples used in CRC calculations : YesUsed interface : Native Win32 interface for Win NT & 2000

Used output format : User Defined EncoderSelected bitrate : 896 kBit/sQuality : HighAdd ID3 tag : NoCommand line compressor : C:\Program Files\FLAC\flac.exeAdditional command line options : -5 -T "Artist=%artist%" -T "Title=%title%" -T "Album=%albumtitle%" -T "Date=%year%" -T "Tracknumber=%tracknr%" -T "Genre=%genre%" %source% -o %dest%

TOC of the extracted CD

Track | Start | Length | Start sector | End sector --------------------------------------------------------- 1 | 0:00.32 | 5:44.58 | 32 | 25889 2 | 5:45.15 | 2:37.62 | 25890 | 37726 3 | 8:23.02 | 2:44.43 | 37727 | 50069 4 | 11:07.45 | 2:35.32 | 50070 | 61726 5 | 13:43.02 | 4:29.65 | 61727 | 81966 6 | 18:12.67 | 4:17.48 | 81967 | 101289 7 | 22:30.40 | 1:36.05 | 101290 | 108494 8 | 24:06.45 | 3:33.27 | 108495 | 124496 9 | 27:39.72 | 2:53.33 | 124497 | 137504 10 | 30:33.30 | 4:31.15 | 137505 | 157844 11 | 35:04.45 | 3:04.42 | 157845 | 171686 12 | 38:09.12 | 4:31.70 | 171687 | 192081

Range status and errors

Selected range

Filename I:\=== VINYL RIPS ===\=== EAC===\Tchaikovsky - The Seasons.wav

Peak level 97.3 % Extraction speed 7.1 X Range quality 99.9 % Test CRC FD6E4E27 Copy CRC FD6E4E27 Copy OK

No errors occurred

AccurateRip summary

Track 1 accurately ripped (confidence 6) [107A7EFA] (AR v1)Track 2 accurately ripped (confidence 6) [3DCE4630] (AR v1)Track 3 accurately ripped (confidence 6) [BE39C843] (AR v1)Track 4 accurately ripped (confidence 6) [5A8F8E20] (AR v1)Track 5 accurately ripped (confidence 6) [A16A7E05] (AR v1)Track 6 accurately ripped (confidence 6) [73190BD7] (AR v1)Track 7 accurately ripped (confidence 6) [60110871] (AR v1)Track 8 accurately ripped (confidence 6) [594646E7] (AR v1)Track 9 accurately ripped (confidence 6) [0043620A] (AR v1)Track 10 accurately ripped (confidence 6) [E7F98335] (AR v1)Track 11 accurately ripped (confidence 6) [34C06F07] (AR v1)Track 12 accurately ripped (confidence 6) [D1075323] (AR v1)

All tracks accurately ripped

End of status report

==== Log checksum 802AE56DD07F8B0E86E4868F43D3949448B963BE5D6857119D3A841F0288B281 ====
  
AUDIOCHECKER v2.0 beta (build 457) - by Dester - <a href="mailto:opdester@freemail.hu" class="postLink">opdester@freemail.hu</a>~~~~~~~~~~~~~~~~~~~~~~~~~~~~~~~~~~-=== DO NOT EDIT THIS FILE! ===-

Path: ...\Tchaikovsky - The Seasons {1984}

1 -=- Tchaikovsky - The Seasons.wav -=- CDDA (43%)

216423252


Трекер:  [ 06-Май-2012 14:41 ]

  

Скачать .torrent

Размер .torrent файла 11 KB


Размер: 129 MB
Хэш (hash) релиза: 2a9287bd67c89764ebe0a62d514c3805c4ca304e

Еще никто не оставлял запись к записи скачать торрент TchaikovskЧайковский - The Seasons Op.37a . Будь первым!

!Обратная связь