Скачать через торрент Elysion - Silent Scr3am - 2009 ALAC, lossless бесплатно русская версия torrent активатор

Если у вас наблюдаются проблемы со скриншотами, переходом по ссылками, скачиванием торрентов - проблемы в блокировщике рекламы AdBlock. #хорошегоДня!


Статистика раздачи
Размер:  322 MB   |    Зарегистрирован:  5 лет 5 месяцев   |    .torrent скачан:  37 раз   |   
Раздают:  1  
   
Загрузка...
 
Автор Сообщение

Galfimbul

avatar Galfimbul




Страна: Greece ll Год: 2009 ll Жанр: Gothic Metal ll Продолжительность: 43 min ll Тексты: вшиты
Обложки: вшиты ll Кодек: ALAC ll Программа-риповщик : foobar2000 + iTunes (lossless) ll Битрейт: lossless
О группе: Elysion - готик-метал группа из Греции, одна из самых ярких представителей греческой метал-сцены. Группа была основана в 2006 году в Афинах гитаристом Johnny Zero и певицей Maxi Nil, которые были завсегдатаи площадок талантливых музыкантов, вскоре сложились в весьма перспективную команду, при участии басc гитариста FXF и барабанщика Petros Fatis, с музыкальным подходом, состоящим из многих оттенков атмосферных и металлических элементов, смешанных с поп-рок формулами, а также альтернативным электро и готических влияний. Записали сразу демо, которое тут же было избрано как "Демо месяца" в Metal Hammer Magazine, Elysion получили отличную критику в вебзинах и журналах, акцентируясь на исключительно профессиональной звуковой записи, которая в полной мере соответствует европейским и американским высоким стандартам.
Треклист
[spoiler=(2009) Silent Scr3am]
01. Dreamer
02. Killing My Dreams
03. Never Forever
04. Weakness In Your Eyes
05. Don't Say A Word
06. The Rules
07. Bleeding
08. Walk Away
09. Loss
10. Far From The Edge
11. Erase Me
  
Exact Audio Copy V0.99 prebeta 5 from 4. May 2009

EAC extraction logfile from 26. February 2010, 21:09

Elysion / Silent Scr3am

Used drive : PLEXTOR DVDR PX-880SA Adapter: 2 ID: 1

Read mode : SecureUtilize accurate stream : NoDefeat audio cache : YesMake use of C2 pointers : No

Read offset correction : 6Overread into Lead-In and Lead-Out : NoFill up missing offset samples with silence : YesDelete leading and trailing silent blocks : NoNull samples used in CRC calculations : NoUsed interface : Native Win32 interface for Win NT & 2000Gap handling : Appended to previous track

Used output format : User Defined EncoderSelected bitrate : 768 kBit/sQuality : HighAdd ID3 tag : NoCommand line compressor : C:\Program Files (x86)\Exact Audio Copy\FLAC\FLAC.EXEAdditional command line options : -8 -V -T "ARTIST=%a" -T "TITLE=%t" -T "ALBUM=%g" -T "DATE=%y" -T "TRACKNUMBER=%n" -T "GENRE=%m" -T "COMMENT=%e" %s -o %d

TOC of the extracted CD

Track | Start | Length | Start sector | End sector --------------------------------------------------------- 1 | 0:00.00 | 4:13.37 | 0 | 19011 2 | 4:13.37 | 3:51.01 | 19012 | 36337 3 | 8:04.38 | 3:20.60 | 36338 | 51397 4 | 11:25.23 | 4:01.21 | 51398 | 69493 5 | 15:26.44 | 3:56.54 | 69494 | 87247 6 | 19:23.23 | 4:15.13 | 87248 | 106385 7 | 23:38.36 | 3:51.41 | 106386 | 123751 8 | 27:30.02 | 3:59.10 | 123752 | 141686 9 | 31:29.12 | 3:05.53 | 141687 | 155614 10 | 34:34.65 | 3:36.16 | 155615 | 171830 11 | 38:11.06 | 5:41.32 | 171831 | 197437

Track 1

Filename F:\Music\Elysion - Silent Scr3am (2009) [FLAC] -TLR\01 - Elysion - Dreamer.wav

Pre-gap length 0:00:02.00

Peak level 100.0 % Track quality 100.0 % Test CRC 80610C50 Copy CRC 80610C50 Track not present in AccurateRip database Copy OK

Track 2

Filename F:\Music\Elysion - Silent Scr3am (2009) [FLAC] -TLR\02 - Elysion - Killing My Dreams.wav

Pre-gap length 0:00:02.00

Peak level 100.0 % Track quality 100.0 % Test CRC 38AFA442 Copy CRC 38AFA442 Track not present in AccurateRip database Copy OK

Track 3

Filename F:\Music\Elysion - Silent Scr3am (2009) [FLAC] -TLR\03 - Elysion - Never Forever.wav

Pre-gap length 0:00:02.00

Peak level 100.0 % Track quality 100.0 % Test CRC AB2F85C3 Copy CRC AB2F85C3 Track not present in AccurateRip database Copy OK

Track 4

Filename F:\Music\Elysion - Silent Scr3am (2009) [FLAC] -TLR\04 - Elysion - Weakness In Your Eyes.wav

Pre-gap length 0:00:02.00

Peak level 100.0 % Track quality 100.0 % Test CRC 0055ACDF Copy CRC 0055ACDF Track not present in AccurateRip database Copy OK

Track 5

Filename F:\Music\Elysion - Silent Scr3am (2009) [FLAC] -TLR\05 - Elysion - Don't Say A Word.wav

Pre-gap length 0:00:02.00

Peak level 100.0 % Track quality 100.0 % Test CRC 26620F36 Copy CRC 26620F36 Track not present in AccurateRip database Copy OK

Track 6

Filename F:\Music\Elysion - Silent Scr3am (2009) [FLAC] -TLR\06 - Elysion - The Rules.wav

Pre-gap length 0:00:02.00

Peak level 100.0 % Track quality 100.0 % Test CRC C392671D Copy CRC C392671D Track not present in AccurateRip database Copy OK

Track 7

Filename F:\Music\Elysion - Silent Scr3am (2009) [FLAC] -TLR\07 - Elysion - Bleeding.wav

Pre-gap length 0:00:02.00

Peak level 100.0 % Track quality 100.0 % Test CRC BB554C78 Copy CRC BB554C78 Track not present in AccurateRip database Copy OK

Track 8

Filename F:\Music\Elysion - Silent Scr3am (2009) [FLAC] -TLR\08 - Elysion - Walk Away.wav

Pre-gap length 0:00:02.00

Peak level 100.0 % Track quality 100.0 % Test CRC 909104F2 Copy CRC 909104F2 Track not present in AccurateRip database Copy OK

Track 9

Filename F:\Music\Elysion - Silent Scr3am (2009) [FLAC] -TLR\09 - Elysion - Loss.wav

Pre-gap length 0:00:02.00

Peak level 100.0 % Track quality 100.0 % Test CRC E091E946 Copy CRC E091E946 Track not present in AccurateRip database Copy OK

Track 10

Filename F:\Music\Elysion - Silent Scr3am (2009) [FLAC] -TLR\10 - Elysion - Far From The Edge.wav

Pre-gap length 0:00:02.00

Peak level 100.0 % Track quality 100.0 % Test CRC 532559A9 Copy CRC 532559A9 Track not present in AccurateRip database Copy OK

Track 11

Filename F:\Music\Elysion - Silent Scr3am (2009) [FLAC] -TLR\11 - Elysion - Erase Me.wav

Pre-gap length 0:00:02.00

Peak level 100.0 % Track quality 100.0 % Test CRC BE384399 Copy CRC BE384399 Track not present in AccurateRip database Copy OK

None of the tracks are present in the AccurateRip database

No errors occurred

End of status report


Трекер:  [ 06-Май-2012 14:41 ]

  

Скачать .torrent

Размер .torrent файла 13 KB


Размер: 322 MB
Хэш (hash) релиза: c2dc26be012c5b2a8eb7858a818ef69b3731f894

Еще никто не оставлял запись к записи скачать торрент Elysion - Silent Scr3am - 2009 ALAC, lossless . Будь первым!

!Обратная связь