Скачать через торрент Markize - Transparence - 2009 ALAC, lossless бесплатно русская версия torrent активатор

Если у вас наблюдаются проблемы со скриншотами, переходом по ссылками, скачиванием торрентов - проблемы в блокировщике рекламы AdBlock. #хорошегоДня!


Статистика раздачи
Размер:  443 MB   |    Зарегистрирован:  5 лет 5 месяцев   |    .torrent скачан:  36 раз   |   
Раздают:  1  
   
Загрузка...
 
Автор Сообщение

Galfimbul

avatar Galfimbul




Страна: France, Россия ll Год: 2009 ll Жанр: Gothic Metal ll Продолжительность: 1 час ll Тексты: вшиты
Обложки: вшиты ll Кодек: ALAC ll Программа-риповщик : foobar2000 + iTunes (lossless) ll Битрейт: lossless
О группе: Группа создана в декабре 2004 года как плод единомышления ее двух основателей: Алины Дунаевской и Давида Вербека - и как реализация желания взять реванш над тяжелым для Алины прошлым. В июле 2005 года дуэт перерастает в полную и сплоченную группу из пяти музыкантов в результате встречи с Франком Шентрие, с Николя Томаи, несколько позднее, с Готье Блондель. В этом сплочённом и крепком составе Markize записывает свой первый альбом "Transparence". Они стремятся создавать такую музыку, которая сможет быть услышана не только любителями рока или металла, но широкой публикой, и особенное значение придано текстам, написанным на французском, английском и русском языках. Музыку Markize можно описать как "настоящую личность с франко-русскими корнями, в основном это тяжелая музыка, но с вкраплениями в эти риффы поп, электро, здесь находят своё место классические струнные, волнующие ритмы и этериал-атмосфера" - все это передаётся посредством воздушного вокала, сочетающего мощь и лирические оттенки.
Треклист
[spoiler=(2009) Transparence (Limited Edition)]
01. Mon Ange
02. Another Breath
03. In My Dream
04. Poussières de Vie
05. In The Obscure ...
06. ... Believe
07. Paperdoll
08. Pardonne-Moi
09. Will You Be Here
10. Позвони Мне, Позвони
11. Etheral
12. No More Life
13. Transparence
14. In My Dream (Acoustic Version)
15. Transparence (Acoustic Version)
  
EAC extraction logfile from 3. June 2010, 19:59 for CDMarkize / Transparence (2009 Limited Edition)

Used drive : PLEXTOR CD-R PREMIUM Adapter: 0 ID: 0Read mode : Secure with NO C2, accurate stream, disable cacheRead offset correction : 30Overread into Lead-In and Lead-Out : Yes

Used output format : C:\Program Files\FLAC\FLAC 1.1.4.exe (User Defined Encoder) 128 kBit/s Additional command line options : -8 -V -T "artist=%a" -T "title=%t" -T "album=%g" -T "date=%y" -T "tracknumber=%n" -T "genre=%m" %s

Other options : Fill up missing offset samples with silence : Yes Delete leading and trailing silent blocks : No Native Win32 interface for Win NT & 2000

Track 1 Filename 01 - Mon Ange.wav

Pre-gap length 0:00:02.00

Peak level 98.9 % Track quality 100.0 % Test CRC 5F84476A Copy CRC 5F84476A Copy OK

Track 2 Filename 02 - Another Breath.wav

Peak level 98.9 % Track quality 100.0 % Test CRC 9BBBBA59 Copy CRC 9BBBBA59 Copy OK

Track 3 Filename 03 - In My Dream.wav

Peak level 98.9 % Track quality 100.0 % Test CRC 0FD0AEBA Copy CRC 0FD0AEBA Copy OK

Track 4 Filename 04 - Poussiиres De Vie.wav

Peak level 98.9 % Track quality 100.0 % Test CRC 706861AC Copy CRC 706861AC Copy OK

Track 5 Filename 05 - In The Obscure....wav

Peak level 98.8 % Track quality 100.0 % Test CRC 5D7AF835 Copy CRC 5D7AF835 Copy OK

Track 6 Filename 06 - ...Believe.wav

Peak level 98.9 % Track quality 100.0 % Test CRC 61706B0B Copy CRC 61706B0B Copy OK

Track 7 Filename 07 - Paperdoll.wav

Peak level 98.9 % Track quality 100.0 % Test CRC D7482D50 Copy CRC D7482D50 Copy OK

Track 8 Filename 08 - Pardonne-Moi.wav

Peak level 98.9 % Track quality 100.0 % Test CRC 7406F5A8 Copy CRC 7406F5A8 Copy OK

Track 9 Filename 09 - Will You Be There.wav

Peak level 98.9 % Track quality 100.0 % Test CRC 18B6994B Copy CRC 18B6994B Copy OK

Track 10 Filename 10 - Pasvani Mniй, Pasvani.wav

Peak level 98.9 % Track quality 99.9 % Test CRC 4B78CC70 Copy CRC 4B78CC70 Copy OK

Track 11 Filename 11 - Etheral.wav

Peak level 61.7 % Track quality 99.7 % Test CRC 6AB66446 Copy CRC 6AB66446 Copy OK

Track 12 Filename 12 - No More Life.wav

Peak level 98.9 % Track quality 100.0 % Test CRC F26856E3 Copy CRC F26856E3 Copy OK

Track 13 Filename 13 - Transparence.wav

Peak level 98.9 % Track quality 100.0 % Test CRC D2D3A754 Copy CRC D2D3A754 Copy OK

Track 14 Filename 14 - In My Dream (Acoustic Version).wav

Peak level 99.9 % Track quality 99.9 % Test CRC 4E21179F Copy CRC 4E21179F Copy OK

Track 15 Filename 15 - Transparence (Acoustic Version).wav

Pre-gap length 0:00:02.00

Peak level 99.9 % Track quality 100.0 % Test CRC 649A5380 Copy CRC 649A5380 Copy OK

No errors occured

End of status report


Трекер:  [ 06-Май-2012 14:41 ]

  

Скачать .torrent

Размер .torrent файла 19 KB


Размер: 443 MB
Хэш (hash) релиза: 408adfba32a8834cdab45811a6b962bfd2ab8eab

Еще никто не оставлял запись к записи скачать торрент Markize - Transparence - 2009 ALAC, lossless . Будь первым!

!Обратная связь