Скачать через торрент Эйр Америка Air America Фильм бесплатно в хорошем качестве torrent

Скачивайте на UnionPeer.org фильмы через торрент без регистрации. Новинки кино в хорошем качестве через торрент. На UnionPeer.org можно скачать через торрент фильмы 2014 и 2015 годов. Самые новые фильмы.

Скачать торрент Эйр Америка Air America бесплатно через .torrent фильм мультфильм сериал

Если у вас наблюдаются проблемы со скриншотами, переходом по ссылками, скачиванием торрентов - проблемы в блокировщике рекламы AdBlock. #хорошегоДня!


Статистика раздачи
Размер:  596 MB   |    Зарегистрирован:  5 лет 5 месяцев   |    .torrent скачан:  396 раз   |   
Раздают:  1  
   
Загрузка...
 
Автор Сообщение

Galfimbul

avatar Galfimbul


Эйр Америка / Air America
Оригинальное название: Air America
Год выпуска: 1990
Страна: США
Жанр: Боевик, Комедия
Продолжительность: 01:52:36
Перевод: Профессиональный (многоголосый, закадровый)
Режиссер: Роджер Споттисвуд / Roger Spottiswoode

В ролях: Мел Гибсон / Mel Gibson, Роберт Дауни-мл. / Robert Downey Jr., Нэнси Трэвис / Nancy Travis, Кен Дженкинс / Ken Jenkins, Дэвид Маршалл Грант / David Marshall Grant, Лейн Смит / Lane Smith, Арт ЛаФлер / Art LaFleur

Описание: В 1969 году в самом разгаре была необъявленная и неофициальная война США в Лаосе. Формально всеми операциями по переброске солдат и оружия правительства Лаоса занималась частная фирма «Эйр Америка». Джин и Билли, работающие пилотами на самолетах этой фирмы и выполняющие опасные полеты над джунглями, узнают, что фирма служит ЦРУ прикрытием для переброски героина из Лаоса...
Качество: HDRip
Формат: MP4
Видео кодек: H.264
Аудио кодек: AAC
Видео: MPEG4 Video (H264) 480x208 29.970fps 608 kbps
Аудио: AAC 48000Hz stereo 129 kbps
General
Complete name : ЭЙР АМЕРИКА.mp4
Format : MPEG-4
Format profile : Base Media
Codec ID : isom
File size : 596 MiB
Duration : 1h 52mn
Overall bit rate : 740 Kbps
Encoded date : UTC 2010-12-08 17:49:59
Tagged date : UTC 2010-12-08 17:49:59

Video
ID : 1
Format : AVC
Format/Info : Advanced Video Codec
Format profile : <a href="mailto:Main@L3.0" class="postLink">Main@L3.0</a>
Format settings, CABAC : Yes
Format settings, ReFrames : 2 frames
Codec ID : avc1
Codec ID/Info : Advanced Video Coding
Duration : 1h 52mn
Bit rate mode : Variable
Bit rate : 608 Kbps
Maximum bit rate : 1 517 Kbps
Width : 480 pixels
Height : 208 pixels
Display aspect ratio : 2.35:1
Frame rate mode : Constant
Frame rate : 29.970 fps
Resolution : 8 bits
Colorimetry : 4:2:0
Scan type : Progressive
Bits/(Pixel*Frame) : 0.203
Stream size : 489 MiB (82%)
Writing library : x264 core 65 r999kMod cc51047
Encoding settings : cabac=1 / ref=2 / deblock=1:0:0 / analyse=0x1:0x131 / me=umh / subme=6 / psy_rd=1.0:0.0 / mixed_ref=1 / me_range=16 / chroma_me=1 / trellis=1 / 8x8dct=0 / cqm=0 / deadzone=21,11 / chroma_qp_offset=-2 / threads=2 / thread_queue=2 / nr=0 / decimate=1 / mbaff=0 / bframes=3 / b_pyramid=0 / b_adapt=1 / b_bias=0 / direct=1 / wpredb=1 / keyint=250 / keyint_min=25 / scenecut=40(pre) / rc=abr / bitrate=608 / ratetol=1.0 / qcomp=0.60 / qpmin=10 / qpmax=51 / qpstep=4 / ip_ratio=1.40 / pb_ratio=1.30 / aq=1:1.00
Encoded date : UTC 2010-12-08 17:49:59
Tagged date : UTC 2010-12-08 17:51:49

Audio
ID : 2
Format : AAC
Format/Info : Advanced Audio Codec
Format version : Version 4
Format profile : LC
Format settings, SBR : No
Codec ID : 40
Duration : 1h 52mn
Bit rate mode : Variable
Bit rate : 129 Kbps
Maximum bit rate : 148 Kbps
Channel(s) : 2 channels
Channel positions : L R
Sampling rate : 48.0 KHz
Stream size : 104 MiB (17%)
Encoded date : UTC 2010-12-08 17:51:44
Tagged date : UTC 2010-12-08 17:51:49


Трекер:  [ 11-Мар-2012 11:23 ]

  

Скачать .torrent

Размер .torrent файла 12 KB


Размер: 596 MB
Хэш (hash) релиза: a7fb55a495a8295d501a7d2e289b78296d0e39be
Подписка на обновления:

Торренты, похожие на Эйр Америка Air America скачать торрент

Форум Название Автор Размер S L Добавлен
Зарубежные фильмы до 2016 ·· Эйр Америка / Air America (Роджер Споттисвуд / Roger Spottiswoode) [1990 г., США, боевик, комедия, DVDRip] MVO + Orig Galfimbul 23468953602.19 GB 0 0 1392021321

11:35

10-Фев-14

Зарубежные фильмы до 2016 ·· Эйр Америка / Air America (Роджер Споттисвуд / Roger Spottiswoode) [1990, США, приключения, боевик, комедия, DVDRip] [Fullscreen version] MVO (DVD Group) Galfimbul 15654952961.46 GB 0 0 1365669034

11:30

11-Апр-13

Зарубежные фильмы до 2016 ·· Эйр Америка / Air America (Роджер Споттисвуд / Roger Spottiswoode) [1990, боевик, комедия, BDRip-AVC] VO (Doctor Joker) + Sub Rus (Doctor Joker) + Original Eng LinGr 31290629982.91 GB 0 0 1364675491

23:31

30-Мар-13

Зарубежные фильмы до 2016 ·· Эйр Америка / Air America (Роджер Споттисвуд / Roger Spottiswoode) [1990 г., Боевик, Комедия, HDRip] Galfimbul 785491968749 MB 0 0 1363787078

16:44

20-Мар-13

Зарубежные фильмы до 2016 ·· Эйр Америка / Air America (Роджер Споттисвуд / Roger Spottiswoode) [1990 г., боевик, комедия, BDRemux, 1080p] Nomak 3202623940029.83 GB 0 0 1295727825

23:23

22-Янв-11

Зарубежные фильмы до 2016 ·· Эйр Америка / Air America (Роджер Споттисвуд / Roger Spottiswoode) [1990 г., Приключение, Экшн, Комедия, BDRip 1080p] MVO+3AVO+Original+2Subs L 1244690481911.59 GB 0 0 1295725920

22:52

22-Янв-11

Зарубежные фильмы до 2016 ·· Эйр Америка / Air America (Роджер Споттисвуд / Roger Spottiswoode) [1990 г., Боевик, Комедия, HDRip] iZhuk 15658598401.46 GB 0 0 1290622324

21:12

24-Ноя-10

Еще никто не оставлял запись к записи скачать торрент Эйр Америка Air America . Будь первым!

!Обратная связь