Скачать через торрент музыку Alai Oli - Концерт 2012-03-07 Космонавт, Санкт-Петербург бесплатно без регистрации torrent

Если у вас наблюдаются проблемы со скриншотами, переходом по ссылками, скачиванием торрентов - проблемы в блокировщике рекламы AdBlock. #хорошегоДня!


Статистика раздачи
Размер:  11.22 GB   |    Зарегистрирован:  5 лет 5 месяцев   |    .torrent скачан:  43 раза   |   
Раздают:  1  
   
Загрузка...
 
Автор Сообщение

_N_

avatar _N_


Alai Oli - Концерт 2012-03-07 Космонавт, Санкт-Петербург

Жанр: Reggue/Rock
Продолжительность: 1:47:54
Год выпуска: 2012
Режиссер: ACiD_KiSS
Фотик Panasonic DMC-TZ10

Состав группы:
Вокал – Ольга Маркес.
Бас-гитара – Александр Федотовских (Шаповски).
Гитара – Дмитрий Лаврентьев.
Труба – Илья Рысин.
Ударные – Илья Липатов.
Напишите, если кто знает, как зовут двух ребят, игравших на струнных инструментах. И что там скрипка и виолончель?

Описание: Непрерывная запись концерта, но не до конца, не ожидал что больше двух часов будет! Аккумы сели, знал бы, брал бы больше. Обрывается на последнем куплете песни "Снег и пепел". Тем кто не был на концерте рекомендую искать видео с песни "Журавлики", там очень круто было, зал сделал сюрприз.

PlayList:
Искры
Главное
Космос
Не отпускай тепло
Февраль
Билет до Кингстона (feat. Татьяна Панова, группа Sun Дали)
Ищу тебя
От Земли до Неба (Caribace cover)
Солнечный даб
ТТП - За***сь
ТТП - Грибок стопы
ТТП - Наташа
Зачем ты под черного легла
Satta Massagana
Мексика
Питерский флоу
Дельфины
Воруй-убивай регги
Фрида
Не думать о тебе
Мегаполис
Снег и пепел
Ману Чао
Журавлики
One love
Крылья
Космос

Качество: CamRip HD
Формат: TS (AVCHD)
Видео кодек: H264
Аудио кодек: AC3
Видео: H264, 16:9, 1280x720, 50fps, 14,9Mbps , progressive.
Аудио: Dolby AC3, 192Kbps, 48000Hz, stereo.
General
ID : 1 (0x1)
Complete name : Alai Oli - Концерт 2012-03-07 Космонавт, Санкт-Петербург.ts
Format : MPEG-TS
File size : 11.2 GiB
Duration : 1h 47mn
Overall bit rate : 14.9 Mbps
Maximum Overall bit rate : 35.5 Mbps

Video
ID : 4113 (0x1011)
Menu ID : 1 (0x1)
Format : AVC
Format/Info : Advanced Video Codec
Format profile : <a href="mailto:High@L4.0" class="postLink">High@L4.0</a>
Format settings, CABAC : No
Format settings, ReFrames : 1 frame
Frame mode : Frame doubling
Codec ID : 27
Duration : 1h 47mn
Bit rate mode : Variable
Bit rate : 14.0 Mbps
Maximum bit rate : 16.6 Mbps
Width : 1 280 pixels
Height : 720 pixels
Display aspect ratio : 16:9
Frame rate : 25.000 fps
Standard : NTSC
Color space : YUV
Chroma subsampling : 4:2:0
Bit depth : 8 bits
Scan type : Progressive
Bits/(Pixel*Frame) : 0.606
Stream size : 10.5 GiB (94%)

Audio
ID : 4352 (0x1100)
Menu ID : 1 (0x1)
Format : AC-3
Format/Info : Audio Coding 3
Mode extension : CM (complete main)
Codec ID : 129
Duration : 1h 47mn
Bit rate mode : Constant
Bit rate : 192 Kbps
Channel(s) : 2 channels
Channel positions : Front: L R
Sampling rate : 48.0 KHz
Bit depth : 16 bits
Compression mode : Lossy
Stream size : 148 MiB (1%)


Трекер:  [ 18-Мар-2012 06:22 ]

  

Скачать .torrent

Размер .torrent файла 28 KB


Размер: 11.22 GB
Хэш (hash) релиза: 23a0890bbf5294a3ac529702833fc806a8c57286

Еще никто не оставлял запись к записи скачать торрент Alai Oli - Концерт 2012-03-07 Космонавт, Санкт-Петербург . Будь первым!

!Обратная связь