Скачать через торрент Yoav - Дискография Discography бесплатно русская версия torrent активатор

Если у вас наблюдаются проблемы со скриншотами, переходом по ссылками, скачиванием торрентов - проблемы в блокировщике рекламы AdBlock. #хорошегоДня!


Статистика раздачи
Размер:  630 MB   |    Зарегистрирован:  5 лет 7 месяцев   |    .torrent скачан:  85 раз   |   
Раздают:  1  
   
Загрузка...
 
Автор Сообщение

L


Дискография Yoav


Год: 2007—2010
Страна: Canada, UK, RSA, Israel
Жанр: Indie Rock, Electronic, Acoustic, Alternative
Официальный сайт: www.yoavmusic.com
Программа-риповщик: foobar2000 + iTunes (lossless)
Кодек: ALAC | Битрейт: lossless | Тексты, обложки: вшиты
Об исполнителе:
Певец по имени Yoav /Йоав Садан/ — идеальный трубадур двадцать первого века. Он не просто человек-оркестр, но человек-студия: звучанию, которое он создаёт на сцене в одиночку при помощи одной лишь гитары и голоса, позавидует не только любая группа, но и любой саунд продюсер. Он не знает границ ни музыкальных, ни географических – родился в Израиле, вырос в Кейптауне (ЮАР), сейчас равномерно распределен между Монреалем и Лондоном. Его стиль своеобразен и узнаваем, и в то же время каждый может найти в его музыке знакомые черты – музыкальный бэкграунд Йоава на редкость эклектичен. В его песнях сливаются вместе и модерновый рок в традициях Бека и Radiohead, и пронзительный фолк-рок Ника Дрейка, соул и ритм-энд-блюз шестидесятых, и, совсем не в последнюю очередь современный R&B.

Своими главными авторитетами музыкант называет Timbaland и Neptunes. От них Йоав унаследовал любовь к минималистичному звуку, замешанному на хип-хопе, однако схожих результатов он добивается не при помощи электроники и компьютерных технологий, а используя исключительно живые инструменты, причем, как правило, всего один – гитару. Гулко стучит пальцами по деке, имитируя суховатые хип-хоповые барабаны, размашисто хлопает фанковым слэпом и жужжит через овердрайв как заправский гаражный рокер. Не менее ловко Йоав манипулирует и собственным голосом – то хрипит как Tricky, то стонет под акустику в манере нынешних инди-рокеров, то переходит на фальцет, где может то завыть как Том Йорк, то уподобиться манерному и сексуальному Джастину Тимберлейку.

Содержание:
Adore [EP]

Год: 2007
Страна-производитель диска:: US
Издатель (лейбл): Verve
№ по каталогу: B000WMEAKW
Продолжительность: 19:04
Источник: закрытый трекер
Треклист:

1. Adore Adore (5:36)
2. Beautiful Lie (5:10)
3. There Is Nobody (3:57)
4. One By One (4:21)

Скриншот iTunes:
  
Exact Audio Copy V0.99 prebeta 4 from 23. January 2008

EAC extraction logfile from 13. May 2009, 5:10

YOAV / Adore

Used drive : JLMS DVD-ROM LTD-166S Adapter: 0 ID: 1

Read mode : SecureUtilize accurate stream : YesDefeat audio cache : YesMake use of C2 pointers : No

Read offset correction : 12Overread into Lead-In and Lead-Out : NoFill up missing offset samples with silence : YesDelete leading and trailing silent blocks : NoNull samples used in CRC calculations : YesUsed interface : Native Win32 interface for Win NT & 2000Gap handling : Appended to previous track

Used output format : User Defined EncoderSelected bitrate : 192 kBit/sQuality : HighAdd ID3 tag : NoCommand line compressor : C:\Program Files\Exact Audio Copy\Flac\flac.exeAdditional command line options : -V -8 -T "artist=%a" -T "title=%t" -T "album=%g" -T "date=%y" -T "tracknumber=%n" -T "genre=%m" %s

TOC of the extracted CD

Track | Start | Length | Start sector | End sector --------------------------------------------------------- 1 | 0:00.00 | 5:35.69 | 0 | 25193 2 | 5:35.69 | 5:09.38 | 25194 | 48406 3 | 10:45.32 | 3:56.45 | 48407 | 66151 4 | 14:42.02 | 4:20.63 | 66152 | 85714

Track 1

Filename G:\Mine\my documents\My Music\EAC rips\flac\YOAV - 2007 - Adore\YOAV - 2007 - Adore - 01 - ADORE ADORE.wav

Pre-gap length 0:00:02.00

Peak level 97.8 % Track quality 100.0 % Test CRC C7607990 Copy CRC C7607990 Track not present in AccurateRip database Copy OK

Track 2

Filename G:\Mine\my documents\My Music\EAC rips\flac\YOAV - 2007 - Adore\YOAV - 2007 - Adore - 02 - BEAUTIFUL LIE.wav

Pre-gap length 0:00:00.37

Peak level 91.3 % Track quality 100.0 % Test CRC BE3149E3 Copy CRC BE3149E3 Track not present in AccurateRip database Copy OK

Track 3

Filename G:\Mine\my documents\My Music\EAC rips\flac\YOAV - 2007 - Adore\YOAV - 2007 - Adore - 03 - THERE IS NOBODY.wav

Pre-gap length 0:00:00.62

Peak level 94.4 % Track quality 100.0 % Test CRC 9D245E85 Copy CRC 9D245E85 Track not present in AccurateRip database Copy OK

Track 4

Filename G:\Mine\my documents\My Music\EAC rips\flac\YOAV - 2007 - Adore\YOAV - 2007 - Adore - 04 - ONE BY ONE.wav

Pre-gap length 0:00:01.55

Peak level 99.9 % Track quality 100.0 % Test CRC A8896F51 Copy CRC A8896F51 Track not present in AccurateRip database Copy OK

None of the tracks are present in the AccurateRip database

No errors occurred

End of status report
  
fooCDtect - foobar2000 + auCDtect, baralgin.

auCDtect: CD records authenticity detector, version 0.8.2Copyright (c) 2004 Oleg Berngardt. All rights reserved.Copyright (c) 2004 Alexander Djourik. All rights reserved.

mode: 0

=========================================== Track: 01. Adore Adore

Processing file: [01. Adore Adore.aucdtect]Detected average hi-boundary frequency: 2.041600e+004 HzDetected average lo-boundary frequency: 1.373431e+004 HzDetected average hi-cut frequency: 2.124530e+004 HzDetected average lo-cut frequency: 1.533943e+004 HzMaximum probablis boundary frequency: 2.189100e+004 Hz

Coefficient of nonlinearity of a phase: 1.949282e-001First order smothness: 5.317614e-001Second order smothness: 6.471567e-001

------------------------------------------------------------This track looks like CDDA with probability 100%

=========================================== Track: 02. Beautiful Lie

Processing file: [02. Beautiful Lie.aucdtect]Detected average hi-boundary frequency: 2.029192e+004 HzDetected average lo-boundary frequency: 1.346680e+004 Hz

Detected average hi-cut frequency: 2.103098e+004 HzDetected average lo-cut frequency: 7.588446e+003 HzMaximum probablis boundary frequency: 2.189100e+004 HzCoefficient of nonlinearity of a phase: 7.728849e-001First order smothness: 4.831325e-001Second order smothness: 5.331325e-001

------------------------------------------------------------This track looks like CDDA with probability 100%

=========================================== Track: 03. There Is Nobody

Processing file: [03. There Is Nobody.aucdtect]Detected average hi-boundary frequency: 2.063909e+004 HzDetected average lo-boundary frequency: 1.548617e+004 HzDetected average hi-cut frequency: 2.171710e+004 HzDetected average lo-cut frequency: 1.298768e+004 HzMaximum probablis boundary frequency: 2.189100e+004 HzCoefficient of nonlinearity of a phase: 1.936783e-001First order smothness: 5.142631e-001Second order smothness: 5.752773e-001

------------------------------------------------------------This track looks like CDDA with probability 100%

=========================================== Track: 04. One By One

Processing file: [04. One By One.aucdtect]Detected average hi-boundary frequency: 2.022840e+004 HzDetected average lo-boundary frequency: 1.281377e+004 HzDetected average hi-cut frequency: 2.101139e+004 HzDetected average lo-cut frequency: 8.066162e+003 HzMaximum probablis boundary frequency: 2.189100e+004 HzCoefficient of nonlinearity of a phase: 1.601085e+000First order smothness: 3.756237e-001Second order smothness: 5.659301e-001

------------------------------------------------------------This track looks like CDDA with probability 100%

===========================================
Charmed & Strange

Год: 2008
Страна-производитель диска:: UK (Europe)
Издатель (лейбл): Universal Island Records
№ по каталогу: 1760997
Продолжительность: 51:24
Источник: Kator
Треклист:

01. Adore Adore (5:37)
02. Club Thing (4:25)
03. Live (4:11)
04. One By One (3:48)
05. There Is Nobody (3:56)
06. Wake Up (3:22)
07. Beautiful Lie (5:10)
08. Angel And The Animal (5:06)
09. Sometimes... (4:49)
10. Yeah, The End (3:27)
11. Where Is My Mind (3:25)
12. Wasteland Waltz [UK BONUS TRACK] (4:08)

Скриншот iTunes:
  
Exact Audio Copy V0.99 prebeta 4 from 23. January 2008

EAC extraction logfile from 19. July 2008, 17:16

Yoav / Charmed and Strange

Used drive : PIONEER DVD-RW DVR-112D Adapter: 3 ID: 0

Read mode : SecureUtilize accurate stream : YesDefeat audio cache : YesMake use of C2 pointers : No

Read offset correction : 48Overread into Lead-In and Lead-Out : NoFill up missing offset samples with silence : YesDelete leading and trailing silent blocks : NoNull samples used in CRC calculations : YesUsed interface : Installed external ASPI interfaceGap handling : Appended to previous track

Used output format : Internal WAV RoutinesSample format : 44.100 Hz; 16 Bit; Stereo

TOC of the extracted CD

Track | Start | Length | Start sector | End sector --------------------------------------------------------- 1 | 0:00.00 | 5:36.60 | 0 | 25259 2 | 5:36.60 | 4:24.41 | 25260 | 45100 3 | 10:01.26 | 4:10.48 | 45101 | 63898 4 | 14:11.74 | 3:47.65 | 63899 | 80988 5 | 17:59.64 | 3:56.04 | 80989 | 98692 6 | 21:55.68 | 3:21.42 | 98693 | 113809 7 | 25:17.35 | 5:10.19 | 113810 | 137078 8 | 30:27.54 | 5:06.28 | 137079 | 160056 9 | 35:34.07 | 4:49.19 | 160057 | 181750 10 | 40:23.26 | 3:27.35 | 181751 | 197310 11 | 43:50.61 | 3:25.19 | 197311 | 212704 12 | 47:16.05 | 4:08.09 | 212705 | 231313

Track 1

Filename C:\Yoav - Charmed and Strange\01 - Adore Adore.wav

Pre-gap length 0:00:02.00

Peak level 94.1 % Track quality 100.0 % Test CRC 73DF04A5 Copy CRC 73DF04A5 Track not present in AccurateRip database Copy OK

Track 2

Filename C:\Yoav - Charmed and Strange\02 - Club Thing.wav

Pre-gap length 0:00:01.04

Peak level 98.8 % Track quality 100.0 % Test CRC C0CFF009 Copy CRC C0CFF009 Track not present in AccurateRip database Copy OK

Track 3

Filename C:\Yoav - Charmed and Strange\03 - Live.wav

Pre-gap length 0:00:01.09

Peak level 98.8 % Track quality 100.0 % Test CRC 747F3BC2 Copy CRC 747F3BC2 Track not present in AccurateRip database Copy OK

Track 4

Filename C:\Yoav - Charmed and Strange\04 - One By One.wav

Pre-gap length 0:00:00.73

Peak level 92.1 % Track quality 100.0 % Test CRC 82FF1FB8 Copy CRC 82FF1FB8 Track not present in AccurateRip database Copy OK

Track 5

Filename C:\Yoav - Charmed and Strange\05 - There Is Nobody.wav

Pre-gap length 0:00:01.07

Peak level 100.0 % Track quality 100.0 % Test CRC F7AC3D68 Copy CRC F7AC3D68 Track not present in AccurateRip database Copy OK

Track 6

Filename C:\Yoav - Charmed and Strange\06 - Wake Up.wav

Pre-gap length 0:00:01.67

Peak level 93.1 % Track quality 99.9 % Test CRC E48C19FD Copy CRC E48C19FD Track not present in AccurateRip database Copy OK

Track 7

Filename C:\Yoav - Charmed and Strange\07 - Beautiful Lie.wav

Pre-gap length 0:00:01.46

Peak level 88.7 % Track quality 100.0 % Test CRC 3B89315B Copy CRC 3B89315B Track not present in AccurateRip database Copy OK

Track 8

Filename C:\Yoav - Charmed and Strange\08 - Angel and The Animal.wav

Pre-gap length 0:00:01.53

Peak level 98.8 % Track quality 100.0 % Test CRC C4AF3859 Copy CRC C4AF3859 Track not present in AccurateRip database Copy OK

Track 9

Filename C:\Yoav - Charmed and Strange\09 - Sometimes.wav

Pre-gap length 0:00:00.17

Peak level 94.7 % Track quality 100.0 % Test CRC E98E360C Copy CRC E98E360C Track not present in AccurateRip database Copy OK

Track 10

Filename C:\Yoav - Charmed and Strange\10 - Yeah, The End.wav

Pre-gap length 0:00:00.70

Peak level 98.8 % Track quality 100.0 % Test CRC 7CF41847 Copy CRC 7CF41847 Track not present in AccurateRip database Copy OK

Track 11

Filename C:\Yoav - Charmed and Strange\11 - Where Is My Mind.wav

Pre-gap length 0:00:00.61

Peak level 100.0 % Track quality 100.0 % Test CRC 5B12C26A Copy CRC 5B12C26A Track not present in AccurateRip database Copy OK

Track 12

Filename C:\Yoav - Charmed and Strange\12 - Wasteland Waltz.wav

Pre-gap length 0:00:02.14

Peak level 98.9 % Track quality 100.0 % Test CRC 4E0B1EB9 Copy CRC 4E0B1EB9 Track not present in AccurateRip database Copy OK

None of the tracks are present in the AccurateRip database

No errors occurred

End of status report
  
fooCDtect - foobar2000 + auCDtect, baralgin.

auCDtect: CD records authenticity detector, version 0.8.2Copyright (c) 2004 Oleg Berngardt. All rights reserved.Copyright (c) 2004 Alexander Djourik. All rights reserved.

mode: 0

=========================================== Track: 01. Adore Adore

Processing file: [01. Adore Adore.aucdtect]Detected average hi-boundary frequency: 2.060721e+004 HzDetected average lo-boundary frequency: 1.447871e+004 HzDetected average hi-cut frequency: 2.187683e+004 HzDetected average lo-cut frequency: 1.716788e+004 HzMaximum probablis boundary frequency: 2.059400e+004 Hz

Coefficient of nonlinearity of a phase: 4.313474e-001First order smothness: 5.616212e-001Second order smothness: 6.903777e-001

------------------------------------------------------------This track looks like CDDA with probability 100%

=========================================== Track: 02. Club Thing

Processing file: [02. Club Thing.aucdtect]Detected average hi-boundary frequency: 2.013788e+004 HzDetected average lo-boundary frequency: 1.335706e+004 HzDetected average hi-cut frequency: 2.187378e+004 HzDetected average lo-cut frequency: 7.387476e+003 HzMaximum probablis boundary frequency: 2.189100e+004 HzCoefficient of nonlinearity of a phase: 2.402978e-001First order smothness: 5.370305e-001Second order smothness: 3.910144e-001

------------------------------------------------------------This track looks like CDDA with probability 100%

=========================================== Track: 03. Live

Processing file: [03. Live.aucdtect]Detected average hi-boundary frequency: 2.049108e+004 HzDetected average lo-boundary frequency: 1.560150e+004 HzDetected average hi-cut frequency: 2.177468e+004 HzDetected average lo-cut frequency: 1.290948e+004 HzMaximum probablis boundary frequency: 2.189100e+004 HzCoefficient of nonlinearity of a phase: 6.191241e-002First order smothness: 5.101890e-001Second order smothness: 5.157466e-001

------------------------------------------------------------This track looks like CDDA with probability 100%

=========================================== Track: 04. One By One

Processing file: [04. One By One.aucdtect]Detected average hi-boundary frequency: 2.009203e+004 HzDetected average lo-boundary frequency: 1.329303e+004 HzDetected average hi-cut frequency: 2.187213e+004 HzDetected average lo-cut frequency: 8.660233e+003 HzMaximum probablis boundary frequency: 2.189100e+004 HzCoefficient of nonlinearity of a phase: 8.693658e-001First order smothness: 4.303178e-001Second order smothness: 6.096170e-001

------------------------------------------------------------This track looks like CDDA with probability 100%

=========================================== Track: 05. There Is Nobody

Processing file: [05. There Is Nobody.aucdtect]Detected average hi-boundary frequency: 2.022311e+004 HzDetected average lo-boundary frequency: 1.351287e+004 HzDetected average hi-cut frequency: 2.103594e+004 HzDetected average lo-cut frequency: 7.264760e+003 HzMaximum probablis boundary frequency: 2.189100e+004 HzCoefficient of nonlinearity of a phase: 1.437747e-001First order smothness: 4.527931e-001Second order smothness: 5.255704e-001

------------------------------------------------------------This track looks like CDDA with probability 100%

=========================================== Track: 06. Wake Up

Processing file: [06. Wake Up.aucdtect]Detected average hi-boundary frequency: 2.024943e+004 HzDetected average lo-boundary frequency: 1.350745e+004 HzDetected average hi-cut frequency: 2.018148e+004 HzDetected average lo-cut frequency: 8.672400e+003 HzMaximum probablis boundary frequency: 2.189100e+004 HzCoefficient of nonlinearity of a phase: 8.691435e-001First order smothness: 4.366651e-001Second order smothness: 5.619530e-001

------------------------------------------------------------This track looks like CDDA with probability 100%

=========================================== Track: 07. Beautiful Lie

Processing file: [07. Beautiful Lie.aucdtect]Detected average hi-boundary frequency: 2.017842e+004 HzDetected average lo-boundary frequency: 1.391054e+004 Hz

Detected average hi-cut frequency: 2.185737e+004 HzDetected average lo-cut frequency: 8.624273e+003 HzMaximum probablis boundary frequency: 2.189100e+004 HzCoefficient of nonlinearity of a phase: 6.424921e-002First order smothness: 4.947620e-001Second order smothness: 5.312781e-001

------------------------------------------------------------This track looks like CDDA with probability 100%

=========================================== Track: 08. Angel And The Animal

Processing file: [08. Angel And The Animal.aucdtect]Detected average hi-boundary frequency: 2.007582e+004 HzDetected average lo-boundary frequency: 1.359633e+004 HzDetected average hi-cut frequency: 2.187409e+004 HzDetected average lo-cut frequency: 1.130563e+004 HzMaximum probablis boundary frequency: 2.189100e+004 HzCoefficient of nonlinearity of a phase: 1.232027e-001First order smothness: 4.022431e-001Second order smothness: 6.632313e-001

------------------------------------------------------------This track looks like CDDA with probability 100%

=========================================== Track: 09. Sometimes....

Processing file: [09. Sometimes.....aucdtect]Detected average hi-boundary frequency: 2.043001e+004 HzDetected average lo-boundary frequency: 1.429854e+004 Hz

Detected average hi-cut frequency: 2.184787e+004 HzDetected average lo-cut frequency: 1.404252e+004 HzMaximum probablis boundary frequency: 2.189100e+004 HzCoefficient of nonlinearity of a phase: 2.876362e-001First order smothness: 4.449438e-001Second order smothness: 6.060995e-001

------------------------------------------------------------This track looks like CDDA with probability 100%

=========================================== Track: 10. Yeah, The End

Processing file: [10. Yeah, The End.aucdtect]Detected average hi-boundary frequency: 2.016907e+004 HzDetected average lo-boundary frequency: 1.305134e+004 Hz

Detected average hi-cut frequency: 2.185967e+004 HzDetected average lo-cut frequency: 8.196406e+003 HzMaximum probablis boundary frequency: 2.189100e+004 HzCoefficient of nonlinearity of a phase: 5.155771e-001First order smothness: 4.494181e-001Second order smothness: 4.364369e-001

------------------------------------------------------------This track looks like CDDA with probability 99%

=========================================== Track: 11. Where Is My Mind

Processing file: [11. Where Is My Mind.aucdtect]Detected average hi-boundary frequency: 2.028422e+004 HzDetected average lo-boundary frequency: 1.366123e+004 HzDetected average hi-cut frequency: 2.182180e+004 HzDetected average lo-cut frequency: 8.562099e+003 HzMaximum probablis boundary frequency: 2.189100e+004 HzCoefficient of nonlinearity of a phase: 2.837374e-001First order smothness: 4.203620e-001Second order smothness: 6.248869e-001

------------------------------------------------------------This track looks like CDDA with probability 100%

=========================================== Track: 12. Wasteland Waltz [UK Bonus Track]

Processing file: [12. Wasteland Waltz [UK Bonus Track].aucdtect]Detected average hi-boundary frequency: 2.023778e+004 HzDetected average lo-boundary frequency: 1.291600e+004 HzDetected average hi-cut frequency: 2.077648e+004 HzDetected average lo-cut frequency: 8.534041e+003 HzMaximum probablis boundary frequency: 2.189100e+004 HzCoefficient of nonlinearity of a phase: 3.546285e-001First order smothness: 3.566617e-001Second order smothness: 6.332335e-001

------------------------------------------------------------This track looks like CDDA with probability 100%

===========================================
A Foolproof Escape Plan

Год: 2010
Страна-производитель диска:: Russia
Издатель (лейбл): You Are Here Music
№ по каталогу: SZCD 7007-10
Продолжительность: 40:33
Треклист:

01. Greed (04:33)
02. Moonbike (03:38)
03. Safety In Numbers (03:36)
04. Yellowbrite Smile (03:46)
05. Spidersong (03:58)
06. LIttle Black Box (03:49)
07. Easy Chair (05:00)
08. Anonymous (04:13)
09. 6/8 Dream (03:51)
10. We All Are Dancing (04:05)

Скриншот iTunes:
  
X Lossless Decoder version 20100323 (116.7)

XLD extraction logfile from 2010-03-31 15:09:56 +0200

Yoav / A Foolproof Escape Plan

Used drive : MATSHITA DVD-R UJ-857E (revision ZA0E)

Use cdparanoia mode : YES (CDParanoia III 10.2 engine)Disable audio cache : OK for the drive with cache less than 2750KBMake use of C2 pointers : NORead offset correction : 102Max retry count : 100

TOC of the extracted CDTrack | Start | Length | Start sector | End sector---------------------------------------------------------1 | 00:00:00 | 04:33:46 | 0 | 205202 | 04:33:46 | 03:38:63 | 20521 | 369333 | 08:12:34 | 03:36:18 | 36934 | 531514 | 11:48:52 | 03:46:56 | 53152 | 701575 | 15:35:33 | 03:58:29 | 70158 | 880366 | 19:33:62 | 03:49:51 | 88037 | 1052627 | 23:23:38 | 05:00:47 | 105263 | 1278098 | 28:24:10 | 04:12:72 | 127810 | 1467819 | 32:37:07 | 03:51:03 | 146782 | 16410910 | 36:28:10 | 04:05:54 | 164110 | 182538

Track 01Filename : /Volumes/LaCie/Musik/Library/Music/MusicDown16032010/Yoav - A Foolproof Escape plan/01 Yoav - Greed.flac

Pre-gap length : 00:02:00

CRC32 hash (test run) : 0A530513CRC32 hash : 0A530513CRC32 hash (skip zero) : 2F10ABD7AccurateRip signature : 0B6472B2->Track not present in AccurateRip database.StatisticsRead error : 0Skipped (treated as error) : 0Edge jitter error (maybe fixed) : 0Atom jitter error (maybe fixed) : 0Drift error (maybe fixed) : 0Dropped bytes error (maybe fixed) : 0Duplicated bytes error (maybe fixed) : 0

Track 02Filename : /Volumes/LaCie/Musik/Library/Music/MusicDown16032010/Yoav - A Foolproof Escape plan/02 Yoav - Moonbike.flac

Pre-gap length : 00:01:03

CRC32 hash (test run) : DA5D15F0CRC32 hash : DA5D15F0CRC32 hash (skip zero) : 0E6B6568AccurateRip signature : 31DDE98C->Track not present in AccurateRip database.StatisticsRead error : 0Skipped (treated as error) : 0Edge jitter error (maybe fixed) : 0Atom jitter error (maybe fixed) : 0Drift error (maybe fixed) : 0Dropped bytes error (maybe fixed) : 0Duplicated bytes error (maybe fixed) : 0

Track 03Filename : /Volumes/LaCie/Musik/Library/Music/MusicDown16032010/Yoav - A Foolproof Escape plan/03 Yoav - Safety In Numbers.flac

Pre-gap length : 00:00:12

CRC32 hash (test run) : 910FB739CRC32 hash : 910FB739CRC32 hash (skip zero) : A4076700AccurateRip signature : 91FF5F59->Track not present in AccurateRip database.StatisticsRead error : 0Skipped (treated as error) : 0Edge jitter error (maybe fixed) : 0Atom jitter error (maybe fixed) : 0Drift error (maybe fixed) : 0Dropped bytes error (maybe fixed) : 0Duplicated bytes error (maybe fixed) : 0

Track 04Filename : /Volumes/LaCie/Musik/Library/Music/MusicDown16032010/Yoav - A Foolproof Escape plan/04 Yoav - Yellowbrite Smile.flac

Pre-gap length : 00:01:09

CRC32 hash (test run) : C37380C7CRC32 hash : C37380C7CRC32 hash (skip zero) : 9F70377FAccurateRip signature : E1AEE450->Track not present in AccurateRip database.StatisticsRead error : 0Skipped (treated as error) : 0Edge jitter error (maybe fixed) : 0Atom jitter error (maybe fixed) : 0Drift error (maybe fixed) : 0Dropped bytes error (maybe fixed) : 0Duplicated bytes error (maybe fixed) : 0

Track 05Filename : /Volumes/LaCie/Musik/Library/Music/MusicDown16032010/Yoav - A Foolproof Escape plan/05 Yoav - Spidersong.flac

Pre-gap length : 00:01:32

CRC32 hash (test run) : E465C934CRC32 hash : E465C934CRC32 hash (skip zero) : B171C032AccurateRip signature : 0CE3A0D4->Track not present in AccurateRip database.StatisticsRead error : 0Skipped (treated as error) : 0Edge jitter error (maybe fixed) : 0Atom jitter error (maybe fixed) : 0Drift error (maybe fixed) : 0Dropped bytes error (maybe fixed) : 0Duplicated bytes error (maybe fixed) : 0

Track 06Filename : /Volumes/LaCie/Musik/Library/Music/MusicDown16032010/Yoav - A Foolproof Escape plan/06 Yoav - Little Black Box.flac

Pre-gap length : 00:00:47

CRC32 hash (test run) : F23B10FECRC32 hash : F23B10FECRC32 hash (skip zero) : 0D4EE99FAccurateRip signature : E0700175->Track not present in AccurateRip database.StatisticsRead error : 0Skipped (treated as error) : 0Edge jitter error (maybe fixed) : 0Atom jitter error (maybe fixed) : 0Drift error (maybe fixed) : 0Dropped bytes error (maybe fixed) : 0Duplicated bytes error (maybe fixed) : 0

Track 07Filename : /Volumes/LaCie/Musik/Library/Music/MusicDown16032010/Yoav - A Foolproof Escape plan/07 Yoav - Easy Chair.flac

Pre-gap length : 00:00:60

CRC32 hash (test run) : 84AAED32CRC32 hash : 84AAED32CRC32 hash (skip zero) : 677237F6AccurateRip signature : 71AAC3DA->Track not present in AccurateRip database.StatisticsRead error : 0Skipped (treated as error) : 0Edge jitter error (maybe fixed) : 0Atom jitter error (maybe fixed) : 0Drift error (maybe fixed) : 0Dropped bytes error (maybe fixed) : 0Duplicated bytes error (maybe fixed) : 0

Track 08Filename : /Volumes/LaCie/Musik/Library/Music/MusicDown16032010/Yoav - A Foolproof Escape plan/08 Yoav - Anonymous.flac

Pre-gap length : 00:00:14

CRC32 hash (test run) : 5860B751CRC32 hash : 5860B751CRC32 hash (skip zero) : B55C1EF3AccurateRip signature : D688E923->Track not present in AccurateRip database.StatisticsRead error : 0Skipped (treated as error) : 0Edge jitter error (maybe fixed) : 0Atom jitter error (maybe fixed) : 0Drift error (maybe fixed) : 0Dropped bytes error (maybe fixed) : 0Duplicated bytes error (maybe fixed) : 0

Track 09Filename : /Volumes/LaCie/Musik/Library/Music/MusicDown16032010/Yoav - A Foolproof Escape plan/09 Yoav - 6/8 Dream.flac

Pre-gap length : 00:00:37

CRC32 hash (test run) : D5302D90CRC32 hash : D5302D90CRC32 hash (skip zero) : 36086AEAAccurateRip signature : 1B56BEAC->Track not present in AccurateRip database.StatisticsRead error : 0Skipped (treated as error) : 0Edge jitter error (maybe fixed) : 0Atom jitter error (maybe fixed) : 0Drift error (maybe fixed) : 0Dropped bytes error (maybe fixed) : 0Duplicated bytes error (maybe fixed) : 0

Track 10Filename : /Volumes/LaCie/Musik/Library/Music/MusicDown16032010/Yoav - A Foolproof Escape plan/10 Yoav - We All Are Dancing.flac

Pre-gap length : 00:00:35

CRC32 hash (test run) : 0D86490DCRC32 hash : 0D86490DCRC32 hash (skip zero) : EC58FE53AccurateRip signature : 971FF580->Track not present in AccurateRip database.StatisticsRead error : 0Skipped (treated as error) : 0Edge jitter error (maybe fixed) : 0Atom jitter error (maybe fixed) : 0Drift error (maybe fixed) : 0Dropped bytes error (maybe fixed) : 0Duplicated bytes error (maybe fixed) : 0

No errors occurred

End of status report
  
fooCDtect - foobar2000 + auCDtect, baralgin.

auCDtect: CD records authenticity detector, version 0.8.2Copyright (c) 2004 Oleg Berngardt. All rights reserved.Copyright (c) 2004 Alexander Djourik. All rights reserved.

mode: 0

=========================================== Track: 01. Greed

Processing file: [01. Greed.aucdtect]Detected average hi-boundary frequency: 2.027970e+004 HzDetected average lo-boundary frequency: 1.319278e+004 HzDetected average hi-cut frequency: 2.172356e+004 HzDetected average lo-cut frequency: 9.917971e+003 HzMaximum probablis boundary frequency: 2.189100e+004 HzCoefficient of nonlinearity of a phase: 8.210229e-001First order smothness: 4.245734e-001Second order smothness: 4.873720e-001

------------------------------------------------------------This track looks like CDDA with probability 100%

=========================================== Track: 02. Moonbike

Processing file: [02. Moonbike.aucdtect]Detected average hi-boundary frequency: 2.024558e+004 HzDetected average lo-boundary frequency: 1.375062e+004 HzDetected average hi-cut frequency: 2.190198e+004 HzDetected average lo-cut frequency: 1.089655e+004 HzMaximum probablis boundary frequency: 2.189100e+004 HzCoefficient of nonlinearity of a phase: 1.139654e-001First order smothness: 4.997875e-001Second order smothness: 4.972376e-001

------------------------------------------------------------This track looks like CDDA with probability 100%

=========================================== Track: 03. Safety In Numbers

Processing file: [03. Safety In Numbers.aucdtect]Detected average hi-boundary frequency: 2.032840e+004 HzDetected average lo-boundary frequency: 1.394816e+004 HzDetected average hi-cut frequency: 2.064423e+004 HzDetected average lo-cut frequency: 8.321910e+003 HzMaximum probablis boundary frequency: 2.189100e+004 HzCoefficient of nonlinearity of a phase: 1.205394e+000First order smothness: 4.548596e-001Second order smothness: 5.473002e-001

------------------------------------------------------------This track looks like CDDA with probability 100%

=========================================== Track: 04. Yellowbrite Smile

Processing file: [04. Yellowbrite Smile.aucdtect]Detected average hi-boundary frequency: 2.025670e+004 HzDetected average lo-boundary frequency: 1.403468e+004 HzDetected average hi-cut frequency: 2.170711e+004 HzDetected average lo-cut frequency: 9.578817e+003 HzMaximum probablis boundary frequency: 2.189100e+004 HzCoefficient of nonlinearity of a phase: 8.778661e-001First order smothness: 4.226804e-001Second order smothness: 4.651546e-001

------------------------------------------------------------This track looks like CDDA with probability 100%

=========================================== Track: 05. Spidersong

Processing file: [05. Spidersong.aucdtect]Detected average hi-boundary frequency: 2.027913e+004 HzDetected average lo-boundary frequency: 1.282190e+004 HzDetected average hi-cut frequency: 2.174037e+004 HzDetected average lo-cut frequency: 9.666527e+003 HzMaximum probablis boundary frequency: 2.169700e+004 HzCoefficient of nonlinearity of a phase: 9.348900e-001First order smothness: 3.677218e-001Second order smothness: 6.490817e-001

------------------------------------------------------------This track looks like CDDA with probability 100%

=========================================== Track: 06. Little Black Box

Processing file: [06. Little Black Box.aucdtect]Detected average hi-boundary frequency: 2.033941e+004 HzDetected average lo-boundary frequency: 1.410552e+004 HzDetected average hi-cut frequency: 2.171313e+004 HzDetected average lo-cut frequency: 7.609901e+003 HzMaximum probablis boundary frequency: 2.189100e+004 HzCoefficient of nonlinearity of a phase: 1.256221e-001First order smothness: 4.372716e-001Second order smothness: 4.636622e-001

------------------------------------------------------------This track looks like CDDA with probability 100%

=========================================== Track: 07. Easy Chair

Processing file: [07. Easy Chair.aucdtect]Detected average hi-boundary frequency: 2.020090e+004 HzDetected average lo-boundary frequency: 1.416141e+004 HzDetected average hi-cut frequency: 2.191611e+004 HzDetected average lo-cut frequency: 1.150300e+004 HzMaximum probablis boundary frequency: 2.189100e+004 HzCoefficient of nonlinearity of a phase: 3.967874e-001First order smothness: 4.191154e-001Second order smothness: 6.198577e-001

------------------------------------------------------------This track looks like CDDA with probability 100%

=========================================== Track: 08. Anonymous

Processing file: [08. Anonymous.aucdtect]Detected average hi-boundary frequency: 2.019193e+004 HzDetected average lo-boundary frequency: 1.275297e+004 HzDetected average hi-cut frequency: 2.153450e+004 HzDetected average lo-cut frequency: 6.882605e+003 HzMaximum probablis boundary frequency: 2.189100e+004 HzCoefficient of nonlinearity of a phase: 2.472733e-001First order smothness: 4.050074e-001Second order smothness: 4.440353e-001

------------------------------------------------------------This track looks like CDDA with probability 100%

=========================================== Track: 09. 6-8 Dream

Processing file: [09. 6-8 Dream.aucdtect]Detected average hi-boundary frequency: 2.019288e+004 HzDetected average lo-boundary frequency: 1.252287e+004 HzDetected average hi-cut frequency: 2.166298e+004 HzDetected average lo-cut frequency: 9.336788e+003 HzMaximum probablis boundary frequency: 2.189100e+004 HzCoefficient of nonlinearity of a phase: 1.050369e+000First order smothness: 3.608414e-001Second order smothness: 7.075243e-001

------------------------------------------------------------This track looks like CDDA with probability 100%

=========================================== Track: 10. We All Are Dancing

Processing file: [10. We All Are Dancing.aucdtect]Detected average hi-boundary frequency: 2.035611e+004 HzDetected average lo-boundary frequency: 1.364919e+004 HzDetected average hi-cut frequency: 2.157283e+004 HzDetected average lo-cut frequency: 1.136577e+004 HzMaximum probablis boundary frequency: 2.189100e+004 HzCoefficient of nonlinearity of a phase: 5.901361e-001First order smothness: 4.380699e-001Second order smothness: 6.219605e-001

------------------------------------------------------------This track looks like CDDA with probability 100%

===========================================


Трекер:  [ 09-Мар-2012 21:25 ]

  

Скачать .torrent

Размер .torrent файла 15 KB


Размер: 630 MB
Хэш (hash) релиза: 6bb0ecdb6b09a9cc73e032854ffa8371c1193838

Еще никто не оставлял запись к записи скачать торрент Yoav - Дискография Discography . Будь первым!

!Обратная связь