Скачать через торрент Bono - Lonely Planet - 2003, ALAC бесплатно русская версия torrent активатор

Если у вас наблюдаются проблемы со скриншотами, переходом по ссылками, скачиванием торрентов - проблемы в блокировщике рекламы AdBlock. #хорошегоДня!


Статистика раздачи
Размер:  255 MB   |    Зарегистрирован:  5 лет 5 месяцев   |    .torrent скачан:  31 раз   |   
Раздают:  1  
   
Загрузка...
 
Автор Сообщение

Galfimbul

avatar Galfimbul


Bono - Lonely Planet
Год: 2003
Жанр: Pop-Rock, Soft-Rock, Pop-Jazz
Страна: International
Тип издания: Альбом
Кодек:: ALAC
Тип рипа:: Tracks
Формат: ALAC (tracks)
Битрейт: Lossless (Общий средний битрейт: 882 kbps)
Программа-риповщик: foobar2000 + iTunes 10.5.3.3
Общая продолжительность:: 38 минут 56 секунд

Трэклист:
01 If You Wear that Velvet Dress
02 Perfect Day
03 Children of the Revolution (Original Soundtrack Moulin Rouge)
04 Summer Wine (Live)
05 Under My Skin
06 Miss Sarajevo (Live)
07 Falling At Your Feet
08 When the Stars Go Blue (Live)
09 What's Going On

Обложки и тексты вшиты в теги
Exact Audio Copy V0.99 prebeta 5 from 4. May 2009

EAC extraction logfile from 25. March 2011, 9:44

Bono / Lonely Planet

Used drive : Optiarc DVD RW AD-7200S Adapter: 4 ID: 0

Read mode : Secure
Utilize accurate stream : Yes
Defeat audio cache : Yes
Make use of C2 pointers : No

Read offset correction : 48
Overread into Lead-In and Lead-Out : No
Fill up missing offset samples with silence : Yes
Delete leading and trailing silent blocks : No
Null samples used in CRC calculations : Yes
Used interface : Installed external ASPI interface
Gap handling : Appended to previous track

Used output format : Internal WAV Routines
Sample format : 44.100 Hz; 16 Bit; Stereo

TOC of the extracted CD

Track | Start | Length | Start sector | End sector
---------------------------------------------------------
1 | 0:00.00 | 6:14.67 | 0 | 28116
2 | 6:14.67 | 3:48.08 | 28117 | 45224
3 | 10:03.00 | 2:59.44 | 45225 | 58693
4 | 13:02.44 | 3:50.31 | 58694 | 75974
5 | 16:53.00 | 3:30.48 | 75975 | 91772
6 | 20:23.48 | 5:20.03 | 91773 | 115775
7 | 25:43.51 | 4:54.73 | 115776 | 137898
8 | 30:38.49 | 4:20.05 | 137899 | 157403
9 | 34:58.54 | 3:57.39 | 157404 | 175217

Track 1

Filename C:\Users\Admin\Desktop\AOA\Bono_Lonely Planet\01. Bono – If You Wear That Velvet Dress.wav

Pre-gap length 0:00:02.00

Peak level 98.8 %
Track quality 99.9 %
Test CRC 51C207C2
Copy CRC 51C207C2
Accurately ripped (confidence 2) [504A3CF7]
Copy OK

Track 2

Filename C:\Users\Admin\Desktop\AOA\Bono_Lonely Planet\02. Bono – Perfect Day.wav

Peak level 100.0 %
Track quality 99.9 %
Test CRC 81748267
Copy CRC 81748267
Accurately ripped (confidence 2) [7540887B]
Copy OK

Track 3

Filename C:\Users\Admin\Desktop\AOA\Bono_Lonely Planet\03. Bono – Children Of The Revolution.wav

Peak level 99.0 %
Track quality 100.0 %
Test CRC 9243B73D
Copy CRC 9243B73D
Accurately ripped (confidence 2) [179B5FB1]
Copy OK

Track 4

Filename C:\Users\Admin\Desktop\AOA\Bono_Lonely Planet\04. Bono – Summer Wine.wav

Peak level 99.5 %
Track quality 100.0 %
Test CRC A51A697F
Copy CRC A51A697F
Accurately ripped (confidence 2) [0926206F]
Copy OK

Track 5

Filename C:\Users\Admin\Desktop\AOA\Bono_Lonely Planet\05. Bono – Under My Skin.wav

Peak level 100.0 %
Track quality 100.0 %
Test CRC F9C9A5EC
Copy CRC F9C9A5EC
Accurately ripped (confidence 2) [E2926CFF]
Copy OK

Track 6

Filename C:\Users\Admin\Desktop\AOA\Bono_Lonely Planet\06. Bono – Miss Sarajevo.wav

Peak level 98.9 %
Track quality 100.0 %
Test CRC AAAC04E2
Copy CRC AAAC04E2
Accurately ripped (confidence 2) [8DB82E97]
Copy OK

Track 7

Filename C:\Users\Admin\Desktop\AOA\Bono_Lonely Planet\07. Bono – Falling At Your Feet.wav

Peak level 99.5 %
Track quality 100.0 %
Test CRC 2B81817A
Copy CRC 2B81817A
Track not present in AccurateRip database
Copy OK

Track 8

Filename C:\Users\Admin\Desktop\AOA\Bono_Lonely Planet\08. Bono – When The Stars Go Blue.wav

Peak level 100.0 %
Track quality 100.0 %
Test CRC 74F30A5E
Copy CRC 74F30A5E
Accurately ripped (confidence 2) [F6FC8160]
Copy OK

Track 9

Filename C:\Users\Admin\Desktop\AOA\Bono_Lonely Planet\09. Bono – What's Going On.wav

Peak level 99.0 %
Track quality 100.0 %
Test CRC E3C31CB8
Copy CRC E3C31CB8
Accurately ripped (confidence 2) [C86BF20A]
Copy OK

8 track(s) accurately ripped
1 track(s) not present in the AccurateRip database

Some tracks could not be verified as accurate

No errors occurred

End of status report


Трекер:  [ 06-Май-2012 14:43 ]

  

Скачать .torrent

Размер .torrent файла 21 KB


Размер: 255 MB
Хэш (hash) релиза: 971164c170fb9b4e132711c949a43835eae92464

Еще никто не оставлял запись к записи скачать торрент Bono - Lonely Planet - 2003, ALAC . Будь первым!

!Обратная связь