Скачать через торрент Marian McPartland - Willow Creek And Other Ballads - 1985 бесплатно русская версия torrent активатор

Если у вас наблюдаются проблемы со скриншотами, переходом по ссылками, скачиванием торрентов - проблемы в блокировщике рекламы AdBlock. #хорошегоДня!


Статистика раздачи
Размер:  130 MB   |    Зарегистрирован:  5 лет 5 месяцев   |    .torrent скачан:  49 раз   |   
Раздают:  1  
   
Загрузка...
 
Автор Сообщение

Galfimbul

avatar Galfimbul


Marian McPartland - Willow Creek And Other Ballads

Год: 1985
Страна: US
Страна-производитель диска: US
Жанр: Piano Jazz
Тип издания: оригинал
Издатель (лейбл): Concord Jazz
Номер по каталогу: CCD-4272
Наличие сканов в содержимом раздачи: нет
Продолжительность: 41:11
Тексты: не требуются
Кодек: ALAC
Программа-риповщик : foobar2000 + iTunes (lossless)
Битрейт: lossless

Треклист:
01. Without You (3:41)
02. The Things We Did Last Summer (5:28)
03. All In Love Is Fair (4:36)
04. Willow Creek (3:28)
05. Long Ago And Far Away (2:54)
06. Someday I'll Find You (4:40)
07. I Saw Stars (4:06)
08. Blood Count (5:02)
09. I've Got A Crush On You (3:54)
10. Summer Song (3:21)
  
Exact Audio Copy V0.99 prebeta 4 from 23. January 2008EAC extraction logfile from 24. March 2009, 14:55Marian McPartland / Willow Creek and Other BalladsUsed drive : ATAPI DVD A DH16A1L Adapter: 1 ID: 0Read mode : SecureUtilize accurate stream : YesDefeat audio cache : YesMake use of C2 pointers : NoRead offset correction : 6Overread into Lead-In and Lead-Out : NoFill up missing offset samples with silence : YesDelete leading and trailing silent blocks : NoNull samples used in CRC calculations : YesUsed interface : Native Win32 interface for Win NT & 2000Used output format : Internal WAV RoutinesSample format : 44.100 Hz; 16 Bit; StereoTOC of the extracted CD Track | Start | Length | Start sector | End sector --------------------------------------------------------- 1 | 0:00.00 | 3:41.37 | 0 | 16611 2 | 3:41.37 | 5:28.13 | 16612 | 41224 3 | 9:09.50 | 4:36.37 | 41225 | 61961 4 | 13:46.12 | 3:27.73 | 61962 | 77559 5 | 17:14.10 | 2:54.22 | 77560 | 90631 6 | 20:08.32 | 4:40.00 | 90632 | 111631 7 | 24:48.32 | 4:05.40 | 111632 | 130046 8 | 28:53.72 | 5:01.60 | 130047 | 152681 9 | 33:55.57 | 3:53.60 | 152682 | 170216 10 | 37:49.42 | 3:21.03 | 170217 | 185294Range status and errorsSelected range Filename C:\EAC1\Marian McPartland - Willow Creek and Other Ballads.wav Peak level 57.7 % Range quality 99.9 % Copy CRC 6EAB8CA6 Copy OKNo errors occurredEnd of status report
  
AUDIOCHECKER v2.0 beta (build 457) - by Dester - <a href="mailto:opdester@freemail.hu" class="postLink">opdester@freemail.hu</a>~~~~~~~~~~~~~~~~~~~~~~~~~~~~~~~~~~-=== DO NOT EDIT THIS FILE! ===-Path: G:\1 -=- Marian McPartland - Willow Creek and Other Ballads.wav -=- CDDA (100%)2917156


Трекер:  [ 06-Май-2012 14:43 ]

  

Скачать .torrent

Размер .torrent файла 11 KB


Размер: 130 MB
Хэш (hash) релиза: c96e0b8e187dd208356aaf94ab4a2ba68fee2216

Еще никто не оставлял запись к записи скачать торрент Marian McPartland - Willow Creek And Other Ballads - 1985 . Будь первым!

!Обратная связь