Скачать через торрент Гражданская Оборона - Звездопад бесплатно русская версия torrent активатор

Если у вас наблюдаются проблемы со скриншотами, переходом по ссылками, скачиванием торрентов - проблемы в блокировщике рекламы AdBlock. #хорошегоДня!


Статистика раздачи
Размер:  437 MB   |    Зарегистрирован:  5 лет 5 месяцев   |    .torrent скачан:  40 раз   |   
Раздают:  1  
   
Загрузка...
 
Автор Сообщение

Galfimbul

avatar Galfimbul


Гражданская Оборона - Звездопад

Год: 2002 / 2010
Страна: Russian Federation ( Омск)
Страна-производитель диска: Russian Federation
Жанр: Psychedelic Punk Rock
Label & Catalog #: Выргород, Союз Мьюзик SZCD 6886-10
Наличие сканов в содержимом раздачи: да
Продолжительность: 1:01:04
Тексты: вшиты
Кодек: ALAC
Release Type: Album, Re-Release
Программа-риповщик : CueTools + Refalac
Битрейт: lossless
Треклист:
01. (2:37) Песня красноармейца
02. (2:38) Песня о циркаче
03. (4:27) На дальней станции сойду
04. (3:09) Шла война
05. (2:52) Звездопад
06. (2:06) Ветер северный
07. (5:04) Город детства
08. (3:05) На всю оставшуюся жизнь
09. (2:53) Слово — Товарищ
10. (2:47) Каравелла
11. (3:29) Белое безмолвие
12. (1:06) Красный конь
13. (1:42) Песенка про чёрную гуашь и надежду
14. (4:43) Солнце взойдёт
15. (1:59) Я принял решение
16. (5:22) Свой среди чужих
17. (5:32) Зачем снятся сны
18. (2:24) Туман (live)
19. (3:14) Солнце взойдёт (live)
  
Exact Audio Copy V0.99 prebeta 5 from 4. May 2009

Отчёт EAC об извлечении, выполненном 15. сентября 2010, 23:00

Гражданская Оборона / Звездопад

Дисковод: Optiarc DVD RW AD-5240S Adapter: 3 ID: 0

Режим чтения : ДостоверностьИспользование точного потока : ДаОтключение кэша аудио : ДаИспользование указателей C2 : Нет

Коррекция смещения при чтении : 48Способность читать области Lead-in и Lead-out : НетЗаполнение пропущенных сэмплов тишиной : ДаУдаление блоков с тишиной в начале и конце : НетПри вычислениях CRC использовались нулевые сэмплы : ДаИнтерфейс : Встроенный Win32-интерфейс для Win NT/2000

Выходной формат : Внутренние WAV-операцииФормат сэмплов : 44.100 Гц; 16 бит; стерео

TOC извлечённого CD

Трек | Старт | Длительность | Начальный сектор | Конечный сектор --------------------------------------------------------------------- 1 | 0:00.00 | 2:36.45 | 0 | 11744 2 | 2:36.45 | 2:38.20 | 11745 | 23614 3 | 5:14.65 | 4:26.43 | 23615 | 43607 4 | 9:41.33 | 3:09.08 | 43608 | 57790 5 | 12:50.41 | 2:52.35 | 57791 | 70725 6 | 15:43.01 | 2:06.03 | 70726 | 80178 7 | 17:49.04 | 5:04.30 | 80179 | 103008 8 | 22:53.34 | 3:05.23 | 103009 | 116906 9 | 25:58.57 | 2:53.00 | 116907 | 129881 10 | 28:51.57 | 2:47.11 | 129882 | 142417 11 | 31:38.68 | 3:29.03 | 142418 | 158095 12 | 35:07.71 | 1:05.39 | 158096 | 163009 13 | 36:13.35 | 1:41.48 | 163010 | 170632 14 | 37:55.08 | 4:43.18 | 170633 | 191875 15 | 42:38.26 | 1:59.15 | 191876 | 200815 16 | 44:37.41 | 5:22.26 | 200816 | 224991 17 | 49:59.67 | 5:32.06 | 224992 | 249897 18 | 55:31.73 | 2:24.03 | 249898 | 260700 19 | 57:56.01 | 3:13.59 | 260701 | 275234

Характеристики диапазона извлечения и сообщения об ошибках

Выбранный диапазон

Имя файла F:\Downloads\Гражданская Оборона - Звездопад.wav

Пиковый уровень 100.0 % Качество диапазона 100.0 % CRC копии 793E9F0E Копирование... OK

Ошибок не произошло

AccurateRip: сводка

Трек 1 нет в базе данныхТрек 2 нет в базе данныхТрек 3 нет в базе данныхТрек 4 нет в базе данныхТрек 5 нет в базе данныхТрек 6 нет в базе данныхТрек 7 нет в базе данныхТрек 8 нет в базе данныхТрек 9 нет в базе данныхТрек 10 нет в базе данныхТрек 11 нет в базе данныхТрек 12 нет в базе данныхТрек 13 нет в базе данныхТрек 14 нет в базе данныхТрек 15 нет в базе данныхТрек 16 нет в базе данныхТрек 17 нет в базе данныхТрек 18 нет в базе данныхТрек 19 нет в базе данных

Ни одного трека нет в базе AccurateRip

Конец отчёта


Трекер:  [ 06-Май-2012 14:44 ]

  

Скачать .torrent

Размер .torrent файла 20 KB


Размер: 437 MB
Хэш (hash) релиза: 79a74b50082e1bd4fca8d91d4fc96a43f3d1e5a3

Еще никто не оставлял запись к записи скачать торрент Гражданская Оборона - Звездопад . Будь первым!

!Обратная связь