Скачать через торрент Robin Spielberg - The Christmas Collection - 2002 бесплатно русская версия torrent активатор

Если у вас наблюдаются проблемы со скриншотами, переходом по ссылками, скачиванием торрентов - проблемы в блокировщике рекламы AdBlock. #хорошегоДня!


Статистика раздачи
Размер:  198 MB   |    Зарегистрирован:  5 лет 5 месяцев   |    .torrent скачан:  27 раз   |   
Раздают:  1  
   
Загрузка...
 
Автор Сообщение

Galfimbul

avatar Galfimbul


Robin Spielberg - The Christmas Collection

Год: 2002
Страна: US
Страна-производитель диска: US
Жанр: NewAge/Piano
Тип издания: оригинал
Издатель (лейбл): playMountain
Номер по каталогу: PMM104
Наличие сканов в содержимом раздачи: нет
Продолжительность: 46:16
Тексты: не требуются
Кодек: ALAC
Программа-риповщик : foobar2000 + iTunes (lossless)
Битрейт: lossless

Треклист:
01.Carol of The Bells
02.O Little Town of Bethlehem
03.Silent Night
04.Angels We Have Heard On High
05.It Came Upon A Midnight Clear
06.The First Noel
07.Jingle Bells
08.The Coventry Carol
09.Lo How A Rose E'er Blooming
10.O Holy Night
11.Merry Christmas
12.In the Bleak Midwinter
13.Wind Through The Olive Trees
Доп. информация:
  
Exact Audio Copy V0.99 prebeta 5 from 4. May 2009

EAC uitlezen log bestand van 29. Maart 2010, 15:00

Robin Spielberg / The Christmas Collection

gebruikt loopwerk : TOSHIBA DVD-ROM SD-C2502 Adapter: 1 ID: 0

Lees mode : VeiligGebruik accurate stream : JaAudio buffer uitgeschakeld : JaGebruik C2 Foutinformatie : Neen

Lees-offset correctie : -472Overlees in Lead-In en Lead-Out : NeenVul ontbrekende offset samples met stiltes aan : JaWis stilte blokken aan het begin en einde : NeenNul samples gebruikt in CRC berekeningen : JaGebruik interface : Native Win32 interface voor Win NT/2000/XP

Gebruik uitgave formaat : Interne WAV RoutinesSample formaat : 44.100 Hz; 16 Bit; Stereo

TOC van de uitgelezen CD

Track | Start | Lengte | Startsector | Eindsector -------------------------------------------------------- 1 | 0:00.00 | 3:51.37 | 0 | 17361 2 | 3:51.37 | 3:16.53 | 17362 | 32114 3 | 7:08.15 | 3:33.17 | 32115 | 48106 4 | 10:41.32 | 2:53.35 | 48107 | 61116 5 | 13:34.67 | 3:30.50 | 61117 | 76916 6 | 17:05.42 | 3:08.30 | 76917 | 91046 7 | 20:13.72 | 3:33.35 | 91047 | 107056 8 | 23:47.32 | 2:40.53 | 107057 | 119109 9 | 26:28.10 | 4:17.05 | 119110 | 138389 10 | 30:45.15 | 4:25.42 | 138390 | 158306 11 | 35:10.57 | 3:27.10 | 158307 | 173841 12 | 38:37.67 | 4:42.58 | 173842 | 195049 13 | 43:20.50 | 2:55.47 | 195050 | 208221

Bereikstatus en fouten

Geselecteerd bereik

Bestandsnaam C:\Muziek\Robin Spielberg - The Christmas Collection.wav

Piek niveau 98.8 % Bereikskwaliteit 99.9 % Kopie CRC 7392C1F2 Kopie OK

Geen fouten opgetreden

AccurateRip overzicht

Track 1 accuraat gelezen (betrouwbaar 1) [689780A7]Track 2 accuraat gelezen (betrouwbaar 1) [19B4355A]Track 3 accuraat gelezen (betrouwbaar 1) [888A4B41]Track 4 accuraat gelezen (betrouwbaar 1) [9DFA195D]Track 5 accuraat gelezen (betrouwbaar 1) [F09D8590]Track 6 accuraat gelezen (betrouwbaar 1) [D581DDB7]Track 7 accuraat gelezen (betrouwbaar 1) [2A54FB08]Track 8 accuraat gelezen (betrouwbaar 1) [6AA13F1B]Track 9 accuraat gelezen (betrouwbaar 1) [851A7DB5]Track 10 accuraat gelezen (betrouwbaar 1) [0218C3E6]Track 11 accuraat gelezen (betrouwbaar 1) [ED0956E6]Track 12 accuraat gelezen (betrouwbaar 1) [7EDDFD0D]Track 13 accuraat gelezen (betrouwbaar 1) [A8A13189]

Alle tracks juist gelezen

Einde van het status rapport
  
AUDIOCHECKER v2.0 beta (build 457) - by Dester - <a href="mailto:opdester@freemail.hu" class="postLink">opdester@freemail.hu</a>~~~~~~~~~~~~~~~~~~~~~~~~~~~~~~~~~~-=== DO NOT EDIT THIS FILE! ===-

Path: ...\Robin Spielberg - Christmas collection 2002

1 -=- Robin Spielberg - The Christmas Collection.ape -=- CDDA (100%)

264699828


Трекер:  [ 06-Май-2012 14:44 ]

  

Скачать .torrent

Размер .torrent файла 16 KB


Размер: 198 MB
Хэш (hash) релиза: 496ac18a982e259846c25263aa33e1ea941167d9

Еще никто не оставлял запись к записи скачать торрент Robin Spielberg - The Christmas Collection - 2002 . Будь первым!

!Обратная связь