Скачать через торрент Эруиалат Аннанаррим - Гимны гаснущего солнца - 2004 бесплатно русская версия torrent активатор

Если у вас наблюдаются проблемы со скриншотами, переходом по ссылками, скачиванием торрентов - проблемы в блокировщике рекламы AdBlock. #хорошегоДня!


Статистика раздачи
Размер:  331 MB   |    Зарегистрирован:  5 лет 5 месяцев   |    .torrent скачан:  24 раза   |   
Раздают:  1  
   
Загрузка...
 
Автор Сообщение

Galfimbul

avatar Galfimbul


Эруиалат Аннанаррим - Гимны гаснущего солнца

Год: 2004
Страна: Россия
Страна-производитель диска: Россия
Жанр: Folk/Ролевое/Менестрель
Тип издания: оригинал
Наличие сканов в содержимом раздачи: нет
Продолжительность: 00:49:19
Тексты: вшиты
Кодек: ALAC
Программа-риповщик : foobar2000 + iTunes (lossless)
Битрейт: lossless
Треклист:
01. Лист
02. Потерять ловца
03. Погоня
04. Ворон
05. Дальними морями
06. Охота
07. Плоть от плоти
08. Месть
09. Ад
10. Огонь
11. Ветер и пепел
12. Три зерна
13. Степь
  
Exact Audio Copy V0.99 prebeta 4 from 23. January 2008

Отчёт EAC об извлечении, выполненном 14. сентября 2008, 16:00

Эруиалат Аннанаррим / Гимны Гаснущего Солнца

Дисковод: _NEC DVD_RW ND-3520A Adapter: 1 ID: 0

Режим чтения : Достоверность Использование точного потока : Да Отключение кэша аудио : Да Использование указателей C2 : Нет

Коррекция смещения при чтении : 48 Способность читать области Lead-in и Lead-out : Нет Заполнение пропущенных сэмплов тишиной : Да Удаление блоков с тишиной в начале и конце : Нет При вычислениях CRC использовались нулевые сэмплы : Да Интерфейс : Установленный внешний ASPI-интерфейс

Выходной формат : Внутренние WAV-операции Формат сэмплов : 44.100 Гц; 16 бит; стерео

TOC извлечённого CD

Трек | Старт | Длительность | Начальный сектор | Конечный сектор --------------------------------------------------------------------- 1 | 0:00.00 | 3:42.21 | 0 | 16670 2 | 3:42.21 | 5:08.32 | 16671 | 39802 3 | 8:50.53 | 3:42.07 | 39803 | 56459 4 | 12:32.60 | 2:37.53 | 56460 | 68287 5 | 15:10.38 | 2:34.45 | 68288 | 79882 6 | 17:45.08 | 5:04.66 | 79883 | 102748 7 | 22:49.74 | 3:26.22 | 102749 | 118220 8 | 26:16.21 | 4:23.35 | 118221 | 137980 9 | 30:39.56 | 3:29.36 | 137981 | 153691 10 | 34:09.17 | 4:11.62 | 153692 | 172578 11 | 38:21.04 | 3:18.43 | 172579 | 187471 12 | 41:39.47 | 3:30.31 | 187472 | 203252 13 | 45:10.03 | 4:09.64 | 203253 | 221991

Характеристики диапазона извлечения и сообщения об ошибках

Выбранный диапазон

Имя файла C:\Documents and Settings\Admin\Мои документы\Downloads\2007 - Гимны Гаснущего Солнца [APE]\Эруиалат Аннанаррим, менестрель гондорский - Гимны Гаснущего Солнца.wav

Пиковый уровень 100.0 % Качество диапазона 100.0 % CRC копии BF564FC9 Копирование... OK

Ошибок не произошло

Конец отчёта
  
Started at: вторник, 06. 03. 2012. - 22:13.161 file found

1 -===- F:\Music lossless\1\2007 - Гимны Гаснущего Солнца [APE]\Эруиалат Аннанаррим, менестрель гондорский - Гимны Гаснущего Солнца.ape Extracted successfully Conclusion: this track is CDDA with probability 100% Tempfile successfully deleted.

Finished at: вторник, 06. 03. 2012. - 22:17.17 (operation time: 0:04.00)


Трекер:  [ 06-Май-2012 14:44 ]

  

Скачать .torrent

Размер .torrent файла 14 KB


Размер: 331 MB
Хэш (hash) релиза: e9549afcea8b1695a5186d9b85b7dbc91694362d

Еще никто не оставлял запись к записи скачать торрент Эруиалат Аннанаррим - Гимны гаснущего солнца - 2004 . Будь первым!

!Обратная связь