Скачать через торрент Liona Boyd - The Romantic Guitar of Liona Boyd - 1985 бесплатно русская версия torrent активатор

Если у вас наблюдаются проблемы со скриншотами, переходом по ссылками, скачиванием торрентов - проблемы в блокировщике рекламы AdBlock. #хорошегоДня!


Статистика раздачи
Размер:  235 MB   |    Зарегистрирован:  5 лет 5 месяцев   |    .torrent скачан:  38 раз   |   
Раздают:  1  
   
Загрузка...
 
Автор Сообщение

Galfimbul

avatar Galfimbul


Liona Boyd - The Romantic Guitar of Liona Boyd

Год: 1985
Страна: UK
Страна-производитель диска: Канада
Жанр: NewAge/Acoustic
Тип издания: оригинал
Издатель (лейбл): CBS
Номер по каталогу: МК 42016
Наличие сканов в содержимом раздачи: нет
Продолжительность: 44:51
Тексты: не требуются
Кодек: ALAC
Программа-риповщик : foobar2000 + iTunes (lossless)
Битрейт: lossless

Треклист:
01 Tara's Theme
02 Love Story
03 Moonlight and Roses
04 Vaya con Dios
05 Sky Dancer
06 Maria Elena
07 Don't Cry for me Argentina
08 If Only Love
09 A Time For Us
10 Love in the Afternoon
11 Scarborough Fair
12 Shadows of the Wind (for Lenny Breau)
13 Moonlight Sonata
14 Chariots Of Fire
  
Exact Audio Copy V0.99 prebeta 5 from 4. May 2009

EAC extraction logfile from 11. May 2010, 15:33

Liona Boyd / The Romantic Guitar of Liona Boyd

Used drive : HL-DT-STDVD-RAM GSA-H22N Adapter: 1 ID: 0

Read mode : SecureUtilize accurate stream : YesDefeat audio cache : YesMake use of C2 pointers : No

Read offset correction : 102Overread into Lead-In and Lead-Out : NoFill up missing offset samples with silence : YesDelete leading and trailing silent blocks : NoNull samples used in CRC calculations : YesUsed interface : Native Win32 interface for Win NT & 2000

Used output format : Internal WAV RoutinesSample format : 44.100 Hz; 16 Bit; Stereo

TOC of the extracted CD

Track | Start | Length | Start sector | End sector --------------------------------------------------------- 1 | 0:00.00 | 3:03.35 | 0 | 13759 2 | 3:03.35 | 3:20.02 | 13760 | 28761 3 | 6:23.37 | 3:01.28 | 28762 | 42364 4 | 9:24.65 | 3:11.57 | 42365 | 56746 5 | 12:36.47 | 3:28.00 | 56747 | 72346 6 | 16:04.47 | 3:23.28 | 72347 | 87599 7 | 19:28.00 | 2:51.15 | 87600 | 100439 8 | 22:19.15 | 3:35.17 | 100440 | 116581 9 | 25:54.32 | 3:02.18 | 116582 | 130249 10 | 28:56.50 | 2:45.00 | 130250 | 142624 11 | 31:41.50 | 3:15.22 | 142625 | 157271 12 | 34:56.72 | 3:37.30 | 157272 | 173576 13 | 38:34.27 | 3:00.48 | 173577 | 187124 14 | 41:35.00 | 3:15.72 | 187125 | 201821

Range status and errors

Selected range

Filename C:\Music\OUT Record\Boyd\LB-TRGOLB\Liona Boyd - The Romantic Guitar of Liona Boyd.wav

Peak level 96.4 % Range quality 100.0 % Copy CRC 931C6324 Copy OK

No errors occurred

AccurateRip summary

Track 1 accurately ripped (confidence 5) [9EA3C5B0]Track 2 accurately ripped (confidence 5) [FF65871D]Track 3 accurately ripped (confidence 5) [DAA39AA4]Track 4 accurately ripped (confidence 5) [D6183514]Track 5 accurately ripped (confidence 5) [01CC8CFB]Track 6 accurately ripped (confidence 5) [59397483]Track 7 accurately ripped (confidence 5) [EBEBBCB6]Track 8 accurately ripped (confidence 5) [F30E5EFF]Track 9 accurately ripped (confidence 5) [C12AE830]Track 10 accurately ripped (confidence 5) [31FAAC81]Track 11 accurately ripped (confidence 5) [25B2DDEA]Track 12 accurately ripped (confidence 5) [4CF10780]Track 13 accurately ripped (confidence 5) [6BB64D56]Track 14 accurately ripped (confidence 5) [7D0A665F]

All tracks accurately ripped

End of status report
  
AUDIOCHECKER v2.0 beta (build 457) - by Dester - <a href="mailto:opdester@freemail.hu" class="postLink">opdester@freemail.hu</a>~~~~~~~~~~~~~~~~~~~~~~~~~~~~~~~~~~-=== DO NOT EDIT THIS FILE! ===-

Path: ...\Liona Boyd - The Romantic Guitar of Liona Boyd - 1985

1 -=- Liona Boyd - The Romantic Guitar of Liona Boyd.ape -=- CDDA (100%)

209203524


Трекер:  [ 06-Май-2012 14:45 ]

  

Скачать .torrent

Размер .torrent файла 19 KB


Размер: 235 MB
Хэш (hash) релиза: 6dcadabfe3f05fa80f07c66843454317393f89c5

Еще никто не оставлял запись к записи скачать торрент Liona Boyd - The Romantic Guitar of Liona Boyd - 1985 . Будь первым!

!Обратная связь