Скачать через торрент Joy Division - The Peel Sessions - 1988 ALAC, lossless бесплатно русская версия torrent активатор

Если у вас наблюдаются проблемы со скриншотами, переходом по ссылками, скачиванием торрентов - проблемы в блокировщике рекламы AdBlock. #хорошегоДня!


Статистика раздачи
Размер:  174 MB   |    Зарегистрирован:  5 лет 5 месяцев   |    .torrent скачан:  35 раз   |   
Раздают:  1  
   
Загрузка...
 
Автор Сообщение

Galfimbul

avatar Galfimbul


Joy Division - The Peel Sessions

Год: 1988
Страна: UK
Жанр: Post-punk
Продолжительность: 30:40
Тексты: вшиты
Кодек: ALAC
Программа-риповщик : foobar2000 + iTunes (lossless)
Битрейт: lossless
Треклист:
01. Exercise One
02. Insight
03. She's Lost Control
04. Transmission
05. Love Will Tear Us Apart
06. 24 Hours
07. Colony
08. Sound of Music
  
EAC extraction logfile from 2. May 2007, 18:35 for CDJoy Division / Peel Sessions

Used drive : TSSTcorpCD/DVDW TS-H653L Adapter: 2 ID: 1Read mode : Secure with NO C2, accurate stream, disable cacheRead offset correction : 6Overread into Lead-In and Lead-Out : No

Used output format : C:\Program Files\FLAC\flac.exe (User Defined Encoder) 128 kBit/s Additional command line options : -V -8 -T "artist=%a" -T "title=%t" -T "album=%g" -T "date=%y" -T "tracknumber=%n" -T "genre=%m" %s

Other options : Fill up missing offset samples with silence : Yes Delete leading and trailing silent blocks : No Native Win32 interface for Win NT & 2000

Track 1 Filename C:\Users\Gualter\Music\RIP\Joy Division - Peel Sessions\01 - Exercise One.wav

Pre-gap length 0:00:02.44

Peak level 82.5 % Track quality 100.0 % Test CRC 4C01FAA2 Copy CRC 4C01FAA2 Copy OK

Track 2 Filename C:\Users\Gualter\Music\RIP\Joy Division - Peel Sessions\02 - Insight.wav

Pre-gap length 0:00:02.16

Peak level 75.4 % Track quality 100.0 % Test CRC 296947DD Copy CRC 296947DD Copy OK

Track 3 Filename C:\Users\Gualter\Music\RIP\Joy Division - Peel Sessions\03 - She's Lost Control.wav

Pre-gap length 0:00:01.97

Peak level 100.0 % Track quality 100.0 % Test CRC D808B988 Copy CRC D808B988 Copy OK

Track 4 Filename C:\Users\Gualter\Music\RIP\Joy Division - Peel Sessions\04 - Transmission.wav

Pre-gap length 0:00:02.80

Peak level 78.3 % Track quality 100.0 % Test CRC 33FB8A9D Copy CRC 33FB8A9D Copy OK

Track 5 Filename C:\Users\Gualter\Music\RIP\Joy Division - Peel Sessions\05 - Love Will Tear Us Apart.wav

Pre-gap length 0:00:02.02

Peak level 86.9 % Track quality 100.0 % Test CRC 6417C91E Copy CRC 6417C91E Copy OK

Track 6 Filename C:\Users\Gualter\Music\RIP\Joy Division - Peel Sessions\06 - 24 Hours.wav

Pre-gap length 0:00:02.56

Peak level 66.4 % Track quality 100.0 % Test CRC B4AD66FC Copy CRC B4AD66FC Copy OK

Track 7 Filename C:\Users\Gualter\Music\RIP\Joy Division - Peel Sessions\07 - Colony.wav

Pre-gap length 0:00:01.96

Peak level 66.1 % Track quality 100.0 % Test CRC 700AEC57 Copy CRC 700AEC57 Copy OK

Track 8 Filename C:\Users\Gualter\Music\RIP\Joy Division - Peel Sessions\08 - Sound of Music.wav

Pre-gap length 0:00:02.73

Peak level 85.7 % Track quality 100.0 % Test CRC 1EB88612 Copy CRC 1EB88612 Copy OK

No errors occured

End of status report


Трекер:  [ 06-Май-2012 14:46 ]

  

Скачать .torrent

Размер .torrent файла 14 KB


Размер: 174 MB
Хэш (hash) релиза: 67420e8a1be52d6823b0300fc073b65ff472828c

Еще никто не оставлял запись к записи скачать торрент Joy Division - The Peel Sessions - 1988 ALAC, lossless . Будь первым!

!Обратная связь