Скачать через торрент Melnar Tilromen - Долина высохшей реки - 2007 бесплатно русская версия torrent активатор

Если у вас наблюдаются проблемы со скриншотами, переходом по ссылками, скачиванием торрентов - проблемы в блокировщике рекламы AdBlock. #хорошегоДня!


Статистика раздачи
Размер:  301 MB   |    Зарегистрирован:  5 лет 5 месяцев   |    .torrent скачан:  30 раз   |   
Раздают:  1  
   
Загрузка...
 
Автор Сообщение

Galfimbul

avatar Galfimbul


Melnar Tilromen - Долина высохшей реки

Год: 2007
Страна: Россия
Страна-производитель диска: Россия
Жанр: Folk/Ролевое/Менестрель
Тип издания: оригинал
Наличие сканов в содержимом раздачи: нет
Продолжительность: 00:47:39
Тексты: отсутствуют
Кодек: ALAC
Программа-риповщик : foobar2000 + iTunes (lossless)
Битрейт: lossless
Треклист:
01. Интро
02. День уничтожения
03. Танец
04. Долина высохшей реки
05. На одре
06. Отчаяние
07. Эпоха Возрождения
08. Сказочный сок
09. Противостояние
10. Жатва созрела
11. Осень
12. Ночь на холмах
  
Exact Audio Copy V0.99 prebeta 4 from 23. January 2008

Отчёт EAC об извлечении, выполненном 17. июля 2008, 21:24

Melnar Tilromen / Valley of the Withered River

Дисковод: _NEC DVD_RW ND-3520A Adapter: 1 ID: 0

Режим чтения : Достоверность Использование точного потока : Да Отключение кэша аудио : Да Использование указателей C2 : Нет

Коррекция смещения при чтении : 48 Способность читать области Lead-in и Lead-out : Нет Заполнение пропущенных сэмплов тишиной : Да Удаление блоков с тишиной в начале и конце : Нет При вычислениях CRC использовались нулевые сэмплы : Да Интерфейс : Установленный внешний ASPI-интерфейс

Выходной формат : Внутренние WAV-операции Формат сэмплов : 44.100 Гц; 16 бит; стерео

TOC извлечённого CD

Трек | Старт | Длительность | Начальный сектор | Конечный сектор --------------------------------------------------------------------- 1 | 0:00.00 | 0:36.03 | 0 | 2702 2 | 0:36.03 | 4:03.59 | 2703 | 20986 3 | 4:39.62 | 4:27.33 | 20987 | 41044 4 | 9:07.20 | 5:41.10 | 41045 | 66629 5 | 14:48.30 | 4:02.56 | 66630 | 84835 6 | 18:51.11 | 3:56.70 | 84836 | 102605 7 | 22:48.06 | 5:33.60 | 102606 | 127640 8 | 28:21.66 | 3:24.47 | 127641 | 142987 9 | 31:46.38 | 4:03.16 | 142988 | 161228 10 | 35:49.54 | 4:42.03 | 161229 | 182381 11 | 40:31.57 | 3:43.25 | 182382 | 199131 12 | 44:15.07 | 3:24.05 | 199132 | 214436

Характеристики диапазона извлечения и сообщения об ошибках

Выбранный диапазон

Имя файла C:\Documents and Settings\Admin\Мои документы\Downloads\2007 - Долина Высохшей Реки [APE]\Melnar Tilromen - Valley of the Withered River.wav

Пиковый уровень 100.0 % Качество диапазона 100.0 % CRC копии 489E35C2 Копирование... OK

Ошибок не произошло

Конец отчёта
  
Started at: понедельник, 05. 03. 2012. - 22:48.161 file found

1 -===- F:\Music lossless\1\2007 - Долина Высохшей Реки [APE]\Melnar Tilromen - Valley of the Withered River.ape Extracted successfully Conclusion: this track is CDDA with probability 100% Tempfile successfully deleted.

Finished at: понедельник, 05. 03. 2012. - 22:52.14 (operation time: 0:03.58)


Трекер:  [ 06-Май-2012 14:46 ]

  

Скачать .torrent

Размер .torrent файла 13 KB


Размер: 301 MB
Хэш (hash) релиза: f2fc5f0377f184c7d0f821faa41147bce793f53b

Еще никто не оставлял запись к записи скачать торрент Melnar Tilromen - Долина высохшей реки - 2007 . Будь первым!

!Обратная связь