Скачать через торрент музыку Gregory Porter - Be Good - 2012, FLAC бесплатно без регистрации torrent

Если у вас наблюдаются проблемы со скриншотами, переходом по ссылками, скачиванием торрентов - проблемы в блокировщике рекламы AdBlock. #хорошегоДня!


Статистика раздачи
Размер:  352 MB   |    Зарегистрирован:  5 лет 7 месяцев   |    .torrent скачан:  453 раза   |   
Раздают:  1  
   
Загрузка...
 
Автор Сообщение

Umakiro

avatar Umakiro


Gregory Porter - Be Good
Жанр: Vocal Jazz, Soul
Год издания диска: 2012
Издатель (лейбл): Motema Music
Аудиокодек: FLAC (*.flac)
Тип рипа: tracks+.cue
Битрейт аудио: lossless
Продолжительность: 62:09
Источник (релизер): artmuss
Наличие сканов в содержимом раздачи: нет
Треклист:
01. Painted on Canvas 4:45
02. Be Good (Lion's Song) 6:26
03. On My Way to Harlem 7:40
04. Real Good Hands 4:51
05. The Way You Want to Live 4:24
06. When Did You Learn 4:19
07. Imitation of Life 3:00
08. Mother's Song 6:59
09. Our Love 3:31
10. Bling Bling 6:00
11. Work Song 6:34
12. God Bless the Child 3:34
  
Exact Audio Copy V1.0 beta 3 from 29. August 2011

EAC extraction logfile from 4. February 2012, 17:46

Gregory Porter / Be Good

Used drive : SONY DVD RW DRU-800A Adapter: 0 ID: 0

Read mode : SecureUtilize accurate stream : YesDefeat audio cache : YesMake use of C2 pointers : No

Read offset correction : 12Overread into Lead-In and Lead-Out : NoFill up missing offset samples with silence : YesDelete leading and trailing silent blocks : NoNull samples used in CRC calculations : YesUsed interface : Native Win32 interface for Win NT & 2000Gap handling : Appended to previous track

Used output format : User Defined EncoderSelected bitrate : 1024 kBit/sQuality : HighAdd ID3 tag : NoCommand line compressor : C:\Program Files (x86)\Exact Audio Copy\Flac\flac.exeAdditional command line options : -8 -V -T "ARTIST=%artist%" -T "TITLE=%title%" -T "ALBUM=%albumtitle%" -T "DATE=%year%" -T "TRACKNUMBER=%tracknr%" -T "GENRE=%genre%" -T "PERFORMER=%albuminterpret%" -T "COMPOSER=%composer%" %haslyrics%--tag-from-file=LYRICS="%lyricsfile%"%haslyrics% -T "ALBUMARTIST=%albumartist%" -T "ALBUM ARTIST=%albumartist%" -T "DISCNUMBER=%cdnumber%" -T "TOTALDISCS=%totalcds%" -T "TOTALTRACKS=%numtracks%" -T "COMMENT=%comment%" %source% -o %dest%

TOC of the extracted CD

Track | Start | Length | Start sector | End sector --------------------------------------------------------- 1 | 0:00.00 | 4:45.14 | 0 | 21388 2 | 4:45.14 | 6:26.66 | 21389 | 50404 3 | 11:12.05 | 7:40.35 | 50405 | 84939 4 | 18:52.40 | 4:50.73 | 84940 | 106762 5 | 23:43.38 | 4:24.67 | 106763 | 126629 6 | 28:08.30 | 4:19.61 | 126630 | 146115 7 | 32:28.16 | 3:00.47 | 146116 | 159662 8 | 35:28.63 | 6:59.48 | 159663 | 191135 9 | 42:28.36 | 3:31.54 | 191136 | 207014 10 | 46:00.15 | 6:00.16 | 207015 | 234030 11 | 52:00.31 | 6:34.19 | 234031 | 263599 12 | 58:34.50 | 3:34.39 | 263600 | 279688

Track 1

Filename C:\EAC RIPS\01 Painted On Canvas.wav

Pre-gap length 0:00:02.00

Peak level 96.6 % Extraction speed 5.8 X Track quality 99.9 % Test CRC 4F0BEA04 Copy CRC 4F0BEA04 Track not present in AccurateRip database Copy OK

Track 2

Filename C:\EAC RIPS\02 Bee Good (Lion's Song).wav

Pre-gap length 0:00:01.08

Peak level 96.6 % Extraction speed 6.3 X Track quality 100.0 % Test CRC 6BB8383C Copy CRC 6BB8383C Track not present in AccurateRip database Copy OK

Track 3

Filename C:\EAC RIPS\03 On My Way To Harlem.wav

Pre-gap length 0:00:01.92

Peak level 96.6 % Extraction speed 6.0 X Track quality 99.9 % Test CRC 95D213E1 Copy CRC 95D213E1 Track not present in AccurateRip database Copy OK

Track 4

Filename C:\EAC RIPS\04 Real Good Hands.wav

Peak level 96.6 % Extraction speed 6.2 X Track quality 100.0 % Test CRC EAB73002 Copy CRC EAB73002 Track not present in AccurateRip database Copy OK

Track 5

Filename C:\EAC RIPS\05 The Way You Want To Live.wav

Pre-gap length 0:00:03.01

Peak level 96.6 % Extraction speed 6.2 X Track quality 100.0 % Test CRC 44239B24 Copy CRC 44239B24 Track not present in AccurateRip database Copy OK

Track 6

Filename C:\EAC RIPS\06 When Did You Learn.wav

Pre-gap length 0:00:01.10

Peak level 96.6 % Extraction speed 6.1 X Track quality 100.0 % Test CRC B7D26AA5 Copy CRC B7D26AA5 Track not present in AccurateRip database Copy OK

Track 7

Filename C:\EAC RIPS\07 Imitation Of Life.wav

Pre-gap length 0:00:00.60

Peak level 67.7 % Extraction speed 6.0 X Track quality 100.0 % Test CRC EE6895B2 Copy CRC EE6895B2 Track not present in AccurateRip database Copy OK

Track 8

Filename C:\EAC RIPS\08 Mother's Song.wav

Pre-gap length 0:00:01.98

Peak level 96.6 % Extraction speed 6.0 X Track quality 99.9 % Test CRC C2F39598 Copy CRC C2F39598 Track not present in AccurateRip database Copy OK

Track 9

Filename C:\EAC RIPS\09 Our Love.wav

Pre-gap length 0:00:02.46

Peak level 96.6 % Extraction speed 6.0 X Track quality 100.0 % Test CRC A70BB60F Copy CRC A70BB60F Track not present in AccurateRip database Copy OK

Track 10

Filename C:\EAC RIPS\10 Bling Bling.wav

Pre-gap length 0:00:01.98

Peak level 96.6 % Extraction speed 5.8 X Track quality 99.9 % Test CRC 882E62E3 Copy CRC 882E62E3 Track not present in AccurateRip database Copy OK

Track 11

Filename C:\EAC RIPS\11 Work Song.wav

Pre-gap length 0:00:01.29

Peak level 96.6 % Extraction speed 6.2 X Track quality 100.0 % Test CRC D649C5B5 Copy CRC D649C5B5 Track not present in AccurateRip database Copy OK

Track 12

Filename C:\EAC RIPS\12 God Bless The Child.wav

Pre-gap length 0:00:03.85

Peak level 93.0 % Extraction speed 4.4 X Track quality 100.0 % Test CRC 8B5806D0 Copy CRC 8B5806D0 Track not present in AccurateRip database Copy OK

None of the tracks are present in the AccurateRip database

No errors occurred

End of status report

---- CUETools DB Plugin V2.1.3

[CTDB TOCID: RclVDQqaHoESqm4rkFO7caliMQs-] found, Submit result: already submitted[5cefea26] (1/1) Accurately ripped

==== Log checksum 977156C32CFFEC322A68E8E88D41B67E1D2056939D7D63340A38B5701EBADA3C ====
  
REM GENRE JazzREM DATE 2012REM DISCID 920E910CREM COMMENT "ExactAudioCopy v1.0b3"PERFORMER "Gregory Porter"TITLE "Be Good"FILE "01 Painted On Canvas.wav" WAVE TRACK 01 AUDIO TITLE "Painted On Canvas" PERFORMER "Gregory Porter" ISRC 4P4346607615 INDEX 01 00:00:00 TRACK 02 AUDIO TITLE "Bee Good (Lion's Song)" PERFORMER "Gregory Porter" ISRC 4P4346607615 INDEX 00 04:44:08FILE "02 Bee Good (Lion's Song).wav" WAVE INDEX 01 00:00:00 TRACK 03 AUDIO TITLE "On My Way To Harlem" PERFORMER "Gregory Porter" ISRC 4P4346607615 INDEX 00 06:24:72FILE "03 On My Way To Harlem.wav" WAVE INDEX 01 00:00:00FILE "04 Real Good Hands.wav" WAVE TRACK 04 AUDIO TITLE "Real Good Hands" PERFORMER "Gregory Porter" ISRC 4P4346607615 INDEX 01 00:00:00 TRACK 05 AUDIO TITLE "The Way You Want To Live" PERFORMER "Gregory Porter" ISRC 4P4346607615 INDEX 00 04:47:72FILE "05 The Way You Want To Live.wav" WAVE INDEX 01 00:00:00 TRACK 06 AUDIO TITLE "When Did You Learn" PERFORMER "Gregory Porter" ISRC 4P4346607615 INDEX 00 04:23:59FILE "06 When Did You Learn.wav" WAVE INDEX 01 00:00:00 TRACK 07 AUDIO TITLE "Imitation Of Life" PERFORMER "Gregory Porter" ISRC 4P4346607615 INDEX 00 04:19:16FILE "07 Imitation Of Life.wav" WAVE INDEX 01 00:00:00 TRACK 08 AUDIO TITLE "Mother's Song" PERFORMER "Gregory Porter" ISRC 4P4346607615 INDEX 00 02:58:48FILE "08 Mother's Song.wav" WAVE INDEX 01 00:00:00 TRACK 09 AUDIO TITLE "Our Love" PERFORMER "Gregory Porter" ISRC 4P4346607615 INDEX 00 06:57:13FILE "09 Our Love.wav" WAVE INDEX 01 00:00:00 TRACK 10 AUDIO TITLE "Bling Bling" PERFORMER "Gregory Porter" ISRC 4P4346607615 INDEX 00 03:29:55FILE "10 Bling Bling.wav" WAVE INDEX 01 00:00:00 TRACK 11 AUDIO TITLE "Work Song" PERFORMER "Gregory Porter" ISRC 4P4346607615 INDEX 00 05:58:69FILE "11 Work Song.wav" WAVE INDEX 01 00:00:00 TRACK 12 AUDIO TITLE "God Bless The Child" PERFORMER "Gregory Porter" ISRC 4P4346607615 INDEX 00 06:30:30FILE "12 God Bless The Child.wav" WAVE INDEX 01 00:00:00
  
AUDIOCHECKER v2.0 beta (build 457) - by Dester - <a href="mailto:opdester@freemail.hu" class="postLink">opdester@freemail.hu</a>~~~~~~~~~~~~~~~~~~~~~~~~~~~~~~~~~~-=== DO NOT EDIT THIS FILE! ===-

Path: ...\Gregory Porter - Be Good (2012)[Flac]

01 -=- 01 Painted On Canvas.flac -=- CDDA (100%)02 -=- 02 Bee Good (Lion's Song).flac -=- CDDA (100%)03 -=- 03 On My Way To Harlem.flac -=- CDDA (100%)04 -=- 04 Real Good Hands.flac -=- CDDA (100%)05 -=- 05 The Way You Want To Live.flac -=- CDDA (100%)06 -=- 06 When Did You Learn.flac -=- CDDA (100%)07 -=- 07 Imitation Of Life.flac -=- CDDA (100%)08 -=- 08 Mother's Song.flac -=- CDDA (100%)09 -=- 09 Our Love.flac -=- CDDA (100%)10 -=- 10 Bling Bling.flac -=- CDDA (100%)11 -=- 11 Work Song.flac -=- CDDA (100%)12 -=- 12 God Bless The Child.flac -=- CDDA (100%)

Summary 100,00% CDDA

252602804
Gregory Porter (vocals); Tivon Pennicott, Yosuke Sato (saxophone); Keyon Harrold, Kamau Kenyatta (horns); Chip Crawford (piano); Emanuel Harrold (drums).
Приятных впечатлений!

Трекер:  [ 06-Мар-2012 14:21 ]

  

Скачать .torrent

Размер .torrent файла 15 KB


Размер: 352 MB
Хэш (hash) релиза: 5c855a324864553a250d23eae4877023f50042bd

Еще никто не оставлял запись к записи скачать торрент Gregory Porter - Be Good - 2012, FLAC . Будь первым!

!Обратная связь