Скачать через торрент музыку Antonio Vivaldi - The Masterworks бесплатно без регистрации torrent

Если у вас наблюдаются проблемы со скриншотами, переходом по ссылками, скачиванием торрентов - проблемы в блокировщике рекламы AdBlock. #хорошегоДня!


Статистика раздачи
Размер:  10.51 GB   |    Зарегистрирован:  5 лет 8 месяцев   |    .torrent скачан:  588 раз   |   
Раздают:  1   Качают:  1  
   
Загрузка...
 
Автор Сообщение

Umakiro

avatar Umakiro


Antonio Vivaldi - The Masterworks [40 CD Box Set]

Жанр: Classical
Год выпуска диска: 2004
Битрейт audio: lossless
Формат: tracks+.cue

Коллекция произведений Антонио Вивальди на 40 CD
1 - Concerto No.1 In E Major Op. 8 No. 1, Rv269, Spring
2 - Concerto No.2 In G Minor Op. 8 No. 2, Rv315, Summer
3 - Concerto No.3 In F Major Op. 8 No. 3, Rv257, Autumn
4 - Concerto No.4 In F Minor Op. 8 No. 4, Rv297, Winter
5 - Concerto No.5 Op. 8 No. 5 In E Flat Major, RV253, La Tempesta Di Mare
6 - Concerto No.6 Op. 8 No. 6 In C Major, RV180, Il Piacere
7 - Concerto No.7 Op. 8 No. 7 In D Minor, RV258

Simon Standage, violin
English Concert, Trevor Pinnock
1 - Concerto No. 8 Op. 8 No. 8 In G Minor (Rv332)
2 - Concerto No. 9 Op. 8 No. 9 In D Minor (Rv236)
3 - Concerto No. 10 Op. 8 No. 10 In B Flat Major (Rv362), 'la Caccia'
4 - Concerto No. 11 Op. 8 No. 11 In D Major (Rv210)
5 - Concerto No. 12 Op. 8 No. 12 in C major (RV178)
6 - Concerto for Traverso & Strings in D major (RV429)
7 - Concerto for Cello & Strings in B minor (RV424)

Simon Standage, violin
Stephen Preston, traverso
Anthony Pleeth, cello
English Concert, Trevor Pinnock
Concerto No. 1 Op. 3 In D Major Rv549 For 4 Violins, Cello, Strings & B.C.
1. Allegro
2. Largo E Spiccato
3. Allegro

Concerto No. 2 Op. 3 In G Minor Rv578 For 2 Violins, Cello, Strings, & B.C.
1. Adagio E Spiccato
2. Allegro
3. Larghetto
4. Allegro

Concerto No. 3 Op. 3 in G major RV310 for violin, strings &b.c.
1. Allegro
2. Largo
3. Allegro

Concerto No. 4 Op. 3 in E minor RV550 for 4 violins, strings & b.c.
1. Andante
2. Allegro assai
3. Adagio
4. Allegro

Concerto No. 5 Op. 3 in A major RV519 for 2 violins, strings & b.c.
1. Allegro
2. Largo
3. Allegro

Concerto No. 6 Op. 3 in A minor RV356 for violin, strings & b.c.
1. Allegro
2. Largo
3. Allegro

Orchestra da Camera "I Filarmonci", Alberto Martini
Violin soloists:
Stefano Pagliani, Alberto Martini, Enrico Balboni, Ettore Pellegrino
Concerto No. 7 Op. 3 in F major RV567
1. Andante
2. Adagio
3. Allegro
4. Adagio
5. Allegro

Concerto No. 8 Op. 3 In A Minor Rv522
1. Allegro
2. Larghetto e spiritoso
3. Allegro

Concerto No. 9 Op. 3 in D major RV230
1. Allegro
2. Larghetto
3. Allegro

Concerto No. 10 Op. 3 in B minor RV580
1. Allegro
2. Largo
3. Larghetto
4. Allegro

Concerto No. 11 Op. 3 in D minor RV565
1. Allegro
2. Adagio e spiccato
3. Allegro
4. Largo e spiccato
5. Allegro

Concerto No. 12 Op. 3 in E major RV265
1. Allegro
2. Largo
3. Allegro

Orchestra da Camera "I Filarmonci", Alberto Martini
Violin soloists:
Stefano Pagliani, Alberto Martini, Enrico Balboni, Ettore Pellegrino
Concerto In C Minor RV441
1. Allegro Non Molto
2. Largo
3. Allegro

Concerto In C Major RV444
1. Allegro Non Molto
2. Largo
3. Allegro Molto

Concerto In F Major RV433
1. Allegro
2. Largo
3. Presto

Concerto In C Major RV443
1. Allegro
2. Largo
3. Allegro Molto

Concerto In F Major RV434
1. Allegro Ma Non Tanto
2. Largo E Cantabile
3. Allegro

Concerto In G Minor RV439
1. Largo
2. Presto, Fantasmi
3. Largo
4. Presto
5. Largo, Il Sonno
6. Allegro

Dan Laurin, recorder
Drottningholm Baroque Ensemble
Concerto In C Major Rv109
1. Allegro
2. Adagio
3. Allegro Molto

Concerto in C minor RV120
1. Allegro non molto
2. Largo
3. Allegro

Concerto in D major RV126
1. Allegro
2. Andante
3. Allegro molto

Concerto in D minor RV129, Madrigalesco
1. Adagio
2. Allegro
3. Adagio
4. Allegro moderato

Symphony in E major RV131
1. Allegro
2. Andante
3. Allegro

Concerto in E minor RV134
1. Allegro moderato
2. Andante
3. Allegro

Concerto in F minor RV143
1. Allegro
2. Adagio
3. Allegro assai

Concerto in G major RV151, Alla Rustica
1. Presto
2. Adagio
3. Allegro

Concerto in G minor RV155
1. Adagio
2. Allegro
3. Largo
4. Allegro

Budapest Strings
Bela Bánfalvi, violin
Concerto in C major RV110
1. Allegro
2. Largo
3. Allegro

Concerto In C Minor Rv118
1. Allegro
2. Largo
3. Allegro

Concerto in D major RV123
1. Allegro
2. Adagio
3. Allegro

Concerto in D minor RV127
1. Allegro
2. Largo
3. Allegro

Concerto in F major RV136
1. Allegro
2. Andante
3. Minuetto, allegro

Concerto in F major RV142
1. Allegro molto
2. Andante molto
3. Allegro molto

Concerto in G major RV145
1. Allegro molto
2. Andante e sempre pianissimo
3. Presto

Concerto in G minor RV156
1. Allegro
2. Adagio
3. Allegro

Concerto in A major RV159
1. Allegro
2. Adagio
3. Allegro

Concerto in A minor RV161
1. Allegro
2. Largo
3. Allegro

Budapest Strings, Bela Bánfalvi
Sinfonia In C Major Rv112
1. Allegro
2. Andante
3. Presto

Concerto in C major RV113
1. Allegro
2. Grave
3. Allegro

Concerto In D Major Rv121
1. Allegro Molto
2. Adagio
3. Allegro

Concerto in D minor RV128
1. Allegro non molto
2. Largo
3. Allegro

Sonata a 4 'Al Santo Sepolcro' RV130
1. Largo molto
2. Allegro ma poco

Sinfonia in E major RV132
1. Allegro
2. Andante
3. Allegro

Concerto in E minor RV133
1. Allegro
2. Largo
3. Allegro

Sinfonia in G major RV149
1. Allegro molto
2. Andante
3. Allegro

Concerto in G minor RV152
1. Allegro molto
2. Andante molto
3. Allegro molto

Concerto in B flat major RV164
1. Allegro
2. Adagio
3. Allegro

Budapest Strings, Bela Bánfalvi
Concerto in D minor for violin, organ and strings RV541
1. Allegro
2. Grave
3. Allegro

Concerto In C Major For Violin, Cello, Organ And Strings Rv544a
1. Allegro
2. Andante
3. Allegro

Concerto in A major, 'Il Rossignuolo', for violin, organ and strings RV335
1. Allegro
2. Largo
3. Allegro

Concerto in F major for traverso, organ and strings RV767
1. Alla breve
2. Larghetto
3. Allegro

Concerto in C minor for violin, organ and strings RV766
1. Allegro
2. Largo
3. Allegro

Concerto in C major for violin, traverso and organ RV779
1. Andante
2. Allegro
3. Largo e cantabile
4. Allegro

Concerto in F major for violin, organ and strings RV542
1. Allegro
2. Alla franchese
3. Allegro

Musica ad Rhenum: Marcelo Bussi, the Jacob van Eynde organ (1708) of church Blauwkapel, Utrecht, The Netherlands
Manfred Kraemer, violin
Balázs Máté, cello
Jed Wentz, traverso
Concerto in D minor RV454
1. Allegro
2. Largo
3. Allegro

Concerto in C major RV184
1. Allegro
2. Andante
3. Allegro

Concerto in C major RV499
1. Allegro
2. Largo
3. Allegro

Concerto in C major RV447
1. Allegro non molto
2. Larghetto
3. Minuet

Concerto in D major RV453
1. Allegro
2. Largo
3. Allegro

Concerto in C major RV452
1. Allegro
2. Adagio
3. Allegro

Burkhard Glaetzner, oboe
Christine Schornsheim, organ/cembalo
Neues Bachisches Collegium Musicum Leipzig, Max Pommer
Concerto in C major RV448
1. Without tempo indication
2. Larghetto
3. Allegro

Concerto In F Major Rv455
1. Without Tempo Indication
2. Grave
3. Allegro

Concerto in G minor RV460
1. Allegro non tasto
2. Largo
3. Allegro non molto

Concerto in A minor RV461
1. Allegro non molto
2. Larghetto
3. Allegro

Concerto in C major RV451
1. Allegro molto
2. Largo
3. Allegro

Burkhard Glaetzner, oboe
Christine Schornsheim, organ/cembalo
Neues Bachisches Collegium Musicum Leipzig, Max Pommer
Concerto in C major RV450
1. Allegro molto
2. Larghetto
3. Allegro

Concerto for 2 oboes, strings + b.c. in C major RV534
1. Allegro
2. Largo
3. Allegro

Concerto in F major RV457
1. Allegro non molto
2. Andante
3. Allegro molto

Concerto For 2 Oboes, Strings + B.C. In D Minor Rv535
1. Largo
2. Allegro
3. Largo
4. Allegro molto

Concerto in A minor RV463
1. Allegro
2. Largo
3. Allegro

Concerto for 2 oboes, strings + b.c. in A minor RV536
1. Without tempo indication
2. Largo
3. Allegro

Burkhard Glaetzner, oboe
Igno Goritzki, oboe II
Christine Schornsheim, cembalo
Neues Bachisches Collegium Musicum Leipzig, Burkhard Glaetzner
Concerto Op. 4 No. 1 in B flat major RV383a
1. Allegro
2. Largo
3. Allegro

Concerto Op. 4 No. 2 in E minor RV279
1. Allegro
2. Largo
3. Allegro

Concerto Op. 4 No. 3 in G major RV301
1. Allegro
2. Largo
3. Allegro

Concerto Op. 4 No. 4 in A minor RV357
1. Allegro
2. Grave
3. Allegro

Concerto Op. 4 No. 5 in A major RV347
1. Allegro
2. Largo
3. Allegro Moderato

Concerto Op. 4 No. 6 in G minor RV316a
1. Allegro
2. Largo
3. Allegro

Alberto Martini, violin
Orchestra da Camera "I Filarmonici"
Concerto Op. 4 No. 7 in C major RV185
1. Largo
2. Allegro molto
3. Largo
4. Allegro

Concerto Op. 4 No. 8 in D minor RV249
1. Allegro
2. Adagio
3. Allegro

Concerto Op. 4 No. 9 in F major RV284
1. Allegro
2. Largo
3. Allegro

Concerto Op. 4 No. 10 in C minor RV196
1. Spirituoso
2. Adagio
3. Allegro

Concerto Op. 4 No. 11 in D major RV204
1. Allegro
2. Largo
3. Allegro assai

Concerto Op. 4 No. 12 in G minor RV298
1. Spirituoso e non presto
2. Largo
3. Allegro

Alberto Martini, violin
Orchestra da Camera "I Filarmonici"
Concerto No. 18 in C major RV467
1. Allegro
2. Andante
3. Allegro

Concerto No. 25 in F major RV491
1. Allegro molto
2. Largo
3. Allegro

Concerto No. 10 in A minor RV500
1. Allegro
2. Largo
3. Allegro

Concerto No. 12 in A minor RV499
1. Allegro
2. Largo
3. Allegro

Concerto No. 28 in C major RV466
1. Allegro
2. Largo
3. Allegro

Concerto No. 22 in F major RV486
1. Allegro non molto
2. Largo
3. Allegro

Concerto No. 4 in C major RV474
1. Allegro
2. Largo
3. Allegro

Concerto No. 15 in F major RV487
1. Allegro
2. Largo
3. Allegro

Daniel Smith, bassoon
English Chamber Orchestra, Philip Ledger
Concerto Op. 9 No 1 in C major RV181a
1. Allegro
2. Largo
3. Allegro

Concerto Op. 9 No 2 in A major RV345
1. Allegro
2. Largo
3. Allegro

Concerto Op. 9 No 3 in G minor RV334
1. Allegro non molto
2. Largo
3. Allegro non molto

Concerto Op. 9 No 4 in E major RV263a
1. Allegro non molto
2. Largo
3. Allegro non molto

Concerto Op. 9 No 5 In A Minor Rv358
1. Adagio
2. Presto
3. Largo
4. Allegro

Concerto Op. 9 No 6 in A major RV348
1. Allegro
2. Largo
3. Allegro non molto

Roberto Baraldi, violin
Orchestra da camera "I Filarmonici"
Concerto No. 7 in B flat major RV359
1. Allegro
2. Largo
3. Allegro

Concerto No. 8 in D minor RV238
1. Allegro
2. Largo
3. Allegro

Concerto No. 9 in B flat major RV530
1. Allegro
2. Largo e spiccato
3. Allegro

Concerto No. 10 in G major RV300
1. Allegro molto
2. Largo cantabile
3. Allegro

Concerto No. 11 in C minor RV198a
1. Allegro
2. Largo
3. Allegro

Concerto No. 12 in B minor RV391
1. Allegro non molto
2. Largo
3. Allegro

Roberto Baraldi, violin
Orchestra da camera "I Filarmonici"
Concerto for Lute 2 Violins and Strings in D major
1. Allegro
2. Largo
3. Allegro

Trio for Lute, Violin and BC in G Minor
1. Andante molto
2. Larghetto
3. Allegro

Trio for Lute, Violin and BC in C major
1. Allegro non molto
2. Larghetto lento
3. Allegro

Concerto For Lute, Viola D'amore And Strings In D Minor
1. Allegro Moderato
2. Largo
3. Allegro

Concerto For Bassoon and Strings in F major
1. Allegro non molto
2. Andante
3. Allegro molto

Jakob Lindberg, lute
Nils-Erik Sparf & Tullo Galli, violins
Monica Huggett, viola d'amore
Michael McCraw, bassoon
Drottningholm Baroque Ensemble
1 - Concerto in G minor RV154 Allegro, Adagio, Allegro
2 - Concerto in B flat major RV367, Allegro ma poco poco, Andante ma poco, Allegro
3 - Concerto in G minor RV578, Adagio e spiccato, Allegro, Larghetto, Allegro
4 - Concerto In D Major Rv124, Allegro, Grave, Allegro
5 - Concerto in G minor RV302, Allegro, Andante, Allegro
6 - Concerto in A minor RV522, Allegro, Larghetto e spiritoso, Allegro

Concerto Italiano, Rinaldo Alessandrini
Solo violin: Fabio Biondi
Concerto in G minor RV105
1. Allegro
2. Largo
3. Allegro

Concerto in A minor RV86
1. Largo
2. Allegro
3. Largo cantabile
4. Allergo molto

Concerto in G major RV101
1. Allegro
2. Largo
3. Allegro

Concerto in G minor RV107
1. Allegro
2. Largo
3. Allegro

Concerto in G minor RV103
1. Allegro ma cantabile
2. Largo
3. Allegro non molto

Concerto in F major RV98
1. Allegro
2. Largo
3. Presto

II Giardino Armonico
Concerto in A major RV396
1. Allegro
2. Andante
3. Allegro

Concerto in D minor RV394
1. Allegro
2. Largo
3. Allegro

Concerto in D minor RV395
1. Allegro
2. Andante
3. Allegro

Concerto in D minor RV393
1. Allegro
2. Largo
3. Allegro

Concerto in D major RV392
1. Allegro
2. Largo
3. Allegro

László Bársony, viola d'amore
Liszt Ferenc Chamber Orchestra, János Rolla
Concerto in G major for strings & b.c.
1. Presto
2. Adagio
3. Allegro

Concerto in G minor for cello, strings & b.c.
1. Allegro
2. Andante
3. Allegro

Concerto in D major for traverso, strings & b.c., 'Il Gardellino'
1. Allegro
2. Cantabile
3. Allegro

Concerto in C major for 2 traversi, strings & b.c.
1. Allegro molto
2. Largo
3. Allegro

Concerto in G minor for violin, strings & b.c.
1. Adagio
2. Allegro
3. Largo
4. Allegro

Concerto in D major for traverso, violin, cello & b.c.
1. Allegro
2. Aria
3. Allegro

Concerto in D major for traverso, violin, cello & b.c.
1. Allegro
2. Andante
3. Allegro

Musica ad Rhenum
Jed Wentz, traverso
Marion Moonen, traverso
Manfred Kraemer, violin
Balázs Máté, cello
Concerto Grosso a 10 stromenti, RV562a
1. Allegro
2. Grave
3. Allegro

Concerto per Sua Altezza Reale di Sassonia in G minor, RV576
1. Allegro
2. Larghetto
3. Allegro

Concerto in D minor for 2 solo violins, 2 traversi, 2 oboes, bassoon, strings & b.c., RV566
1. Allegro assai
2. Largo
3. Allegro

Concerto in F major for 2 horns, strings & b.c., RV538
1. Allegro
2. Largo
3. Allegro

Concerto in F major for violin, 2 horns, 2 oboes, bassoon, strings & b.c., RV569
1. Allegro
2. Grave
3. Allegro

Modo Antiquo
Concerto for 2 mandolins, strings & organ in G major RV460
1. Allegro
2. Andante
3. Allegro

Concerto For Mandolin, Strings & Organ In C Major Rv554
1. Allegro
2. Largo
3. Allegro

Cello Sonata in B flat major RV46
1. Largo
2. Allegro
3. Largo
4. Allegro

Cello Sonata in G minor RV42
1. Preludio-largo
2. Allemanda-andante
3. Sarabanda-largo
4. Gigue-allegro

Cello Sonata in A minor RV44
1. Largo
2. Allegro poco
3. Largo
4. Allegro

Mandolin Concertos:
Marten Scheffer, mandolin I
Rens van der Zalm, mandolin II
Malipiero Ensemble, Krijn Koetsveld
Cello sonatas:
Viola de Hoogh, cello
Mike Fentross, theorbe
Krijn Koetsveld, organ
Sonata No. 1 in G minor RV27
1. Preludio
2. Giga
3. Sarabanda
4. Corrente

Sonata No. 2 in A major RV31
1. Preludio e Capriccio
2. Corrente
3. Giga

Sonata No. 3 in D minor RV14
1. Preludio
2. Corrente
3. Adagio
4. Giga

Sonata No. 4 in F major RV20
1. Andante
2. Allemanda
3. Sarabanda
4. Corrente

Sonata No. 5 in B minor RV36
1. Preludio
2. Corrente
3. Giga

Sonata No. 6 in C major RV1
1. Preludio
2. Allemanda
3. Giga

Fabrizio Cipriani, violin
Antonio Fantinuoli, cello
Antonio Frigé, harpsichord
Ugo Nastrucci, theorbo
Sonata No. 7 in C minor RV8
1. Preludio
2. Allemanda
3. Corrente

Sonata No. 8 in G major RV23
1. Preludio
2. Giga
3. Corrente

Sonata No. 9 in E minor RV16
1. Preludio
2. Capriccio
3. Giga
4. Gavotta

Sonata No. 10 in F minor RV21
1. Preludio
2. Allemanda
3. Giga

Sonata No. 11 in D major RV9
1. Preludio
2. Fantasia
3. Gavotta

Sonata No. 12 in A minor RV32
1. Preludio
2. Capriccio
3. Grave
4. Allemanda

Fabrizio Cipriani, violin
Antonio Fantinuoli, cello
Antonio Frigé, harpsichord
Ugo Nastrucci, theorbo
1 - Coro- Arma, caedes, vinictae
2 - Recitativo Holofernes- Felix et fausta dies
3 - Aria Holofernes- Nil arma, nil bella
4 - Recitativo Vagans, Holofernes- Mi Dux, Domine Mi
5 - Aria Vagans- Matrona Inimica
6 - Recitativo Holofernes, Vagans- Huc Accedat Matrona
7 - Aria Juditha- Quo Cum Patriae Me Ducit
8 - Recitativo Abra- Ne Timeas Non
9 - Aria Abra- Vultus Tui Vago Splendori
10 - Recitativo Abra, Juditha- Vide, Humilis Prostrata
11 - Coro- O Quam Vaga, Venusta
12 - Recitativo Vagans- Quem Vides Prope
13 - Aria Vagans- Quamvis Ferro
14 - Recitativo Holofernes, Juditha- Quid Cerno!
15 - Aria Juditha- Quanto Magis Generosa
16 - Recitativo Holofernes, Juditha- Magna, O Femina, Petis
17 - Aria Holofernes- Sede, O Cara
18 - Recitativo Holofernes, Juditha- Tu Judex Es
19 - Aria Juditha- Agitha Infido Flatu
20 - Recitativo Holofernes- In Tentorio Supernae
21 - Aria Con Coro Vagans, Chorus- O Servi Volate
22 - Recitativo Vagans, Abra- Tu Quoque Hebraica Ancilla
23 - Aria Juditha- Veni, Veni, Me Sequere
24 - Recitativo Abra- Venio, Juditha
25 - Aria Abra- Fulgeat Sol Frontis Decorae
26 - Recitativo Abra- In Urbe Interim Pia
27 - Coro- Mundi Rector De Caelo

Gloria Banditelli, mezzo-soprano: Juditha
Mária Zádori, soprano: Abra, her servant
Judit Németh, mezzo-soprano:Holofernes
Annette Markert, mezzo-soprano: Vagans, his servant
Katalin Gémes, mezzo-soprano: Ozias, high priest
Savaria Vocal Ensemble
Capella Savaria, Nicholas McGeran
1 - Recitativo Ozias- Summi Regis In Mente
2 - Aria Ozias- O Sydera, O Stellae
3 - Recitativo Ozias- Jam Saevantis In Hostem
4 - Recitativo Holofernes- Nox In Umbra Dum Surgit
5 - Aria Holofernes- Nox Obscura
6 - Recitativo Holofernes, Juditha- Belligerae Meae Sorti
7 - Aria Juditha- Transit Aetas
8 - Recitativo Holofernes, Juditha- Haec In Crastinum Serva
9 - Aria Holofernes- Noli O Cara Te Adorantis
10 - Recitativa Juditha, Holofernes- Tibi Dona Salutis
11 - Coro- Plena Nectare Non Mero
12 - Recitativo Holofernes- Tormenta Mentis Tuae
13 - Aria Juditha- Vivat In Pace
14 - Recitativa Juditha- Sic In Pace
15 - Aria Vagans- Umbrace Carae
16 - Recitativo Vagans, Juditha, Abra- Quae Fortunata Es
17 - Aria Abra- Non Ita Reducem
18 - Recitativo Abra- Jam Pergo, Postes Claudo
19 - Accompagnato Juditha- Summae Astrorum Creator
20 - Aria Juditha- In Sommo Profundo
21 - Accompagnato Juditha- Impii, Indigni Tiranni
22 - Recitativo Juditha, Abra- Abra, Abra Accipe Mumus
23 - Aria Abra- Si Fugida Per Te
24 - Recitativo Vagans- Jam Non Procui
25 - Aria Vagans- Armatae Face
26 - Recitativo Ozias- Quam Insolita Luce
27 - Aria Ozias- Gaude Felix
28 - Accompagnato Ozias- Ita Decreto Aeterno
29 - Coro- Salve Invicta Juditha

Gloria Banditelli, mezzo-soprano: Juditha
Mária Zádori, soprano: Abra, her servant
Judit Németh, mezzo-soprano:Holofernes
Annette Markert, mezzo-soprano: Vagans, his servant
Katalin Gémes, mezzo-soprano: Ozias, high priest
Savaria Vocal Ensemble
Capella Savaria, Nicholas McGeran
1 - Sinfonia
ACT 1
2 - Licida- Ho Risoluto Aminta
3 - Megacle- Superbo Di Me Stesso
4 - Licida- Quel Destrier Che All'albergo E Vicino
5 - Coro- O Care Selve, O Cara
6 - Clistene- Del Destin Non Vi Lagnate
7 - Aristea- E Troppo Spietato
8 - Argene- Piu Non Si Trovano
9 - Licida- Mentre Dormi Amor Fomenti
10 - Megacle,Aristea- Ne'giorni Tuoi Felici
ACT 2
11 - Introduzione
12 - Argene- Ed Ancor Della Pugna
13 - Aristea- Sta Piangendo La Tortorella
14 - Arminta- Siam Navi All'onde Algenti

Andrew Walker Schultze: Clistene
Lucia Meeuwsen: Aristea
Elisabeth von Magnus: Argene
Mieke van der Sluis: Megacle
Gepard Lesne: Licida
Aris Christoffelis" Aminta
William Oberholtzer: Alcandro
Ensemble Vocal La Cappella
Clemencic Consort, René Clemencic
1 - Clistene- Avvicinati, O Figlia
2 - Clistene- Qual Serpe Totuosa
3 - Megacle- Se Cerca, Se Dice
4 - Licida- Gemo In Un Punto, E Fremo
ACT 3
5 - Alcandro- Sciagura In Braccio A Morte
6 - Aristea- Cara Con Tua Cosi
7 - Megacle- Lo Seguitai Felice
8 - Aminta- Son Qual Per Mare Ignoto
9 - Clistene- Non So Donde Viene
10 - Coro- Viva Il Figlio Delinquente

Andrew Walker Schultze: Clistene
Lucia Meeuwsen: Aristea
Elisabeth von Magnus: Argene
Mieke van der Sluis: Megacle
Gepard Lesne: Licida
Aris Christoffelis" Aminta
William Oberholtzer: Alcandro
Ensemble Vocal La Cappella
Clemencic Consort, René Clemencic
1 - Fonti Del Pianto, Cantata For Soprano & B.C. Rv656
2 - Sorge Vermiglia In Ciel La Bella Aurora, Cantata For Soprano & B.C. Rv667
3 - Lungi Dal Vago Volto, Cantata For Soprano, Violin & B.C. Rv680
4 - Perfidissimo Cor! Iniquo Fato! Cantata For Contralto & B.C. Rv674
5 - Piango, Gemo, Sospiro E Peno, Cantata For Contralto & B.C. Rv675

Alessandra Ruffini, soprano
Caterina Calvi, contralto
Ensemble Concerto, Roberto Gini
Amor, Hai Vinto, Rv651
1. Recitativo- Amor, Hai Vinto
2. Aria- Passo Di Pena In Pena
3. Recitativo- In Qual Strano E Confuso
4. Aria- Se A Me Rivolge Il Ciglio

Elvira, Anima Mia, Rv654
1. Recitativo- Elvira, Anima Mea
2. Aria- Partiro, Ma Vedrai Quanto
3. Recitativo- Passo Al Rogo Fatal
4. Aria- Pupille Vaghe

Aure, Voi Piu Non Siete, Rv652
1. Recitativo- Aure, Voi Piu Viete
2. Aria- Ti Confido Il Pianto Mio
3. Recitativo- Infelice Daliso, Ove Tra Queste
4. Aria- Le Fiorite E Belle Sponde

Nel Partir Da Te, Mio Caro, Rv661
1. Aria- Nel Partir Da Te, Mio Caro
2. Recittivo- Parto Mio Ben Da Te
3. Aria- Da Quel Volto Sempre Amato

T'intendo Si Mio Cor, Rv668
1. Aria- T'intenso Si Mio Cor
2. Recitativo- Aure Soavi E Grate
3. Aria- Placido Zeffiretto

Se Ben Vivono Sen'alma, Rv 664
1. Se Ben Vivono Sen'alma
2. Recitativo- Odi Che Contro Te Simili Accenti
3. Aria- Nella Tua Guancia Amorosa

Rossana Bertini, soprano
Modo Antiquo:
Bettina Hoffmann, cello
Gian Luca Lastraioli, theorbo
Andrea Perugi, harpsichhord
Federico Maria Sardelli, director
Si Levi Dal Pensier, Rv665
1. Aria- Si Levi Dal Pensier
2. Recitativo- Pastori Vaghi E Infidi
3. Aria- Vanne Sull'adria, Infido

Usignolietto Bello, Rv796
1. Aria- Usignoletto Bello
2. Recitativo- Ma Tu Rapido Fuggi
3. Aria- Come Te Cantando Anch'io

Del Suo Nation Rigore, Rv 653
1. Recitativo- Del Suo Nation Rigore
2. Aria- Quel Belg'occhi Io Pianger Vidi
3. Recitativo- Ah, Che D'amore
4. Aria- Sempre Invvano Il Dio D'amore

Tra L'erbe Zeffiri, Rv669
1. Aria- Tra L'erbe I Zeffiri
2. Recitativo- Voi Rivi, Augelli, Venti
3. Aria- Nel Mar La Vavicella

Era La Nottequando I Suoi Splendori, Rv655
1. Recitativo- Era La Notte Quando I Suoi Splendori
2. Aria- Duri Marmi Ch'il Mio Bene
3. Recitativo- Sfogando In Questa Guisa
4. Aria- Se Non Potei Mirar

Povero Mio Cor, Rv658
1. Aria- I Povero Mio Cor
2. Recitativo- Ah, Ch'un'immens Doglia
3. Aria- Deh Non Partir Si Presto

Nicky Kennedy, soprano
Elena Cecchi Fedi, soprano
Modo Antiquo, Federico Maria Sardelli
Laudate Pueri (Psalm 112), Rv601
1. Laudate Pueri
2. Sit Omen
3. A Solis Ortu
4. Excelsus
5. Suscitans
6. Ut Collocet
7. Gloria
8. Sicut Erat
9. Amen

In Furore, Motet, Rv626
1. Aria- In Furore Iustissimae Irae
2. Recitativo- Miserationum Pater Piisime
3. Aria- Tunc Meus Fletus Evadet Laetus
4. Alleluja

Nulla In Mundo Pax Sincera, Motet, Rv630
1. Aria- Nulla In Mundo Pax Sincera
2. Recitativo- Blando Colore Oculos
3. Aria- Spirat Anguis
4. Alleluja

Magda Kalmár, soprano
Liszt Ferenc Chamber Orchestra, Frigyes Sándor
Credo, Rv 591
1. Credo
2. Et Incarnatus Est
3. Crucifixus
4. Et Resurrexit

Beatus Vir (Psalm 111), Rv 598

Lauda Jerusalem (Psalm 147), Rv 609

Gloria, Rv 589
1. Gloria In Excelsis
2. Et In Terra Pax
3. Laudamus Te
4. Gratias Agimus Tibi
5. Propter Magnam Gloriam
6. Domine Deus
7. Domine Fili Unigenite
8. Domine Deus, Agnus Dei
9. Qui Tollis Peccata Mundi
10. Qui Sedes Ad Dexteram Patris
11. Quoniam Tu Solus Sanctus
12. Cum Sancto Spiritu

Mária Zempléni, soprano
Katalin Szókefalvi-Nagy, soprano
Melinda Lugosi, soprano
Klára Takács, contralto
Budapest Madrigal Choir
List Ferenc Chamber Orchestra, Ferenc Szekeres
Introduction To The Gloria Rv639 & Gloria Rv588
1. A. Aria- Jubilate O Amoeni Chori
2. B. Recitativo- In Tua Solemni Pompa

Gloria Rv588
1. Coro- Gloria In Excelsis Deo
2. Coro- Et In Terra Pax
3. Aria Soprano, Alto- Laudamus Te
4. Coro- Gratias Agimus Tibi
5. Aria Tenore- Domine Deus
6. Coro- Domine Fili Unigenite
7. Aria Soprano- Domine Deus
8. Coro- Qui Tollis
9. Aria Alto- Qui Sedes
10. Aria Soprano- Quoniam Tu Solus Sanctus
11. Coro- Cum Sancto Spiritu

Stabat Mater For Alto Solo Rv621
1. Stabat Mater
2. Cuius Animam
3. O Quam Tristis
4. Quis Est Homo
5. Quis Non Posset
6. Pro Peccatis
7. Eja Mater
8. Fac Ut Ardeat
9. Amen

Holland Boys Choir
Netherlands Bach Collegium
Pieter Jan Leusink, conductor
Major Strijk, soprano
Sytse Buwalda, alto
Martinus Leusink, tenore
Jeroen Assink, basso
Pieter Affourtit, violin
Marten Boeken, violin
Örzse Adam, viola
Bernadette Verhagen, viola
Peter Frankenberg, oboe
Eduard Wesley, oboe
Susan Williams, tromba
Frank Wakelkamp, cello
Vaughan Schlepp, organ
Introduction To The Dixit For Alto, Rv635
1. Aria Alto- Ascende Laeta
2. Recitativo Alto- Quam Pulchri
3. Aria Alto- Sernito, Angeli

Dixit Dominus (Psalm 109), Rv595
1. Coro- Dixit Dominus
2. Coro- Donec Ponam
3. Aria Soprano- Virgam
4. Aria Soprano, Alto- Tecum Principum
5. Coro-Juravit Dominus
6. Aria Soprano- Dominus
7. Coro, Alto- Jubicabit
8. Aria Alto- De Torrente
9. Aria Alto, Tenore, Basso- Gloria Patrie
10. Coro- Sicut Erat
11. Coro- Et In Saecula

Nisi Dominus, Per Alto, Rv608
1. Nisi Dominus
2. Vanum Est Vobis
3. Surgite
4. Cum Dederit
5. Sicut Sagittae
6. Beatus Vir
7. Gloria Patri
8. Sicut Erat
9. Amen

Holland Boys Choir
Netherlands Bach Collegium
Pieter Jan Leusink, conductor
Major Strijk, soprano
Sytse Buwalda, alto
Martinus Leusink, tenore
Jeroen Assink, basso
Peter Frankenberg, oboe
Eduard Wesley, oboe
Susan Williams, tromba
Frank Wakelkamp, cello
Albert Brüggen, cello
Vaughan Schlepp, organ
Pieter Affourtit, violin
Marten Boeken, violin
Örzse Adam, viola
Jan Hollestelle, double-bass
Magnificat, Rv610
1. Coro Magnificat
2. Coro (Soprano, Alto, Tenore)- Et Exultavit
3. Coro- Et Misericordia
4. Coro- Fecit Potentiam
5. Coro- Deposuit Potentes
6. Aria Soprano, Alto- Esurientes
7. Coro- Suscepit Israel
8. Soprano, Alto, Basso- Sicut Locutus
9. Coro- Gloria

Psalmus, Rv604
1. Coro- Laudate Dominum (Psalm 116)
2. Coro- In Exitu Israel (Psalmus 113)

Credidi Propter Quod (Psalmus 115)
Rv605, 1. Coro- Credidi Propter Quod
2. Coro- Vota Mea Domino
3. Coro- Gloria Patri

Amor Hai Vinto (Cantata For Alto Solo), Rv683
1. Recitativo- Amor Hai Vinto
2. Aria- Passo Di Pena
3. Recitativo- In Che Strano
4. Aria- Se A Me Rivolge

Holland Boys Choir
Netherlands Bach Collegium
Pieter Jan Leusink, conductor
Major Strijk, soprano
Sytse Buwalda, alto
Martinus Leusink, tenore
Bas Ramselaar, basso
Peter Frankenberg, oboe
Eduard Wesley, oboe
Frank Wakelkamp, cello
Pieter Affourtit, violin
Marten Boeken, violin
Örzse Adam, viola
Jan Hollestelle, double-bass
Vaughan Schlepp, cembalo
Ostro Picta For Soprano Solo, Rv642
1. Aria- Ostro Picta, Armata Spina
2. Recitativo- Sic Transit
3. Aria- Linguis Favete

Alla Caccia Dell'alme (Cantata For Alto Solo), Rv670
1. Aria- Alla Caccia Dell'alme
2. Recitativo- Ma Sia Crueleo
3. Aria- Preso Sei Moi

Par Che Tardo (Cantata For Soprano Solo), Rv662
1. Aria- Par Che Trado
2. Recitativo- Quando Tu
3. Aria- Allor Che In Cielo

All'ombra Di Sospetto (Cantata For Soprano Solo), Rv678
1. Recitativo- All'ombra Di Sospetto
2. Aria- Avezzo Non
3. Recitativo- Oh Quantia Manti
4. Aria- Menti Content

Laudate Pueri Dominum For Soprano Solo (Psalm 112), Rv600
1. Aria- Laudate Pueri
2. Aria- Sit Nomen Domini
3. Aria- A Solis Ortu
4. Aria- Excelsus
5. Aria- Quis Sicut
6. Aria- Suscitans A Terra
7. Aria- Ut Collocet
8. Aria- Gloria Patri
9. Aria- Laudate Pueri
10. Aria- Amen

Netherlands Bach Collegium
Pieter Jan Leusink, conductor
Major Strijk, soprano
Sytse Buwalda, alto
Pieter Affourtit, violin
Marten Boeken, violin
Örzse Adam, viola
Frank Wakelkamp, cello
Jan Hollestelle, double-bass
Vaughan Schlepp, cembalo
Rien Voskuilen, cembalo
Marion Moonen, traverso
Che Giova Il Sospirar (Cantata For Soprano Solo) Rv 679
1. Recitativo- Che Giova Il
2. Aria- Nell'aspor Tuo
3. Recitativo- Ma Tu, Nume D'amor
4. Aria- Cupido, Tu Vedi

Care Selve Amici Prati (Cantata For Alto Solo) Rv 671
1. Aria- Care Selve Amici
2. Recitativo- Ben Mal'accorto
3. Placido In Letto

Geme Londo Che Parte (Cantata For Soprano Solo) Rv 666
1. Recitativo- Si, Si Luci Adorate
2. Aria- Io Non Voglio
3. Recitativo- Cosi Mesto
4. Aria- Belta Spietata

Perfidisimo Cor! (Cantata For Alto Solo) Rv 674
1. Recitativo- Perfidissimo Cor
2. Aria- Nel Torbido Mio
3. Recitativo- Cosi Dunque
4. Aria- Piu Amar

Perche Son Molli (Cantata For Soprano Solo) Rv 681
1. Aria- Perche Son Moll
2. Dunque Gia
3. Aria- Le Fresche

Netherlands Bach Collegium
Pieter Jan Leusink, conductor
Major Strijk, soprano
Sytse Buwalda, alto
Pieter Affourtit, violin
Marten Boeken, violin
Örzse Adam, viola
Frank Wakelkamp, cello
Jan Hollestelle, double-bass
Vaughan Schlepp, cembalo
Pieter Affourtit, violin
Дополнительная информация:
Exact Audio Copy V0.99 prebeta 4 from 23. January 2008

EAC extraction logfile from 10. November 2008, 12:36

Antonio Vivaldi / Violin Concertos Op. 8 Nos. 1-7 (CD 1/9)

Used drive : MATSHITADVD-RAM UJ-820S Adapter: 1 ID: 0

Read mode : Secure
Utilize accurate stream : Yes
Defeat audio cache : Yes
Make use of C2 pointers : No

Read offset correction : 102
Overread into Lead-In and Lead-Out : No
Fill up missing offset samples with silence : Yes
Delete leading and trailing silent blocks : No
Null samples used in CRC calculations : Yes
Used interface : Native Win32 interface for Win NT & 2000
Gap handling : Appended to previous track

Used output format : User Defined Encoder
Selected bitrate : 128 kBit/s
Quality : High
Add ID3 tag : No
Command line compressor : C:\Program Files\FLAC\flac.exe
Additional command line options : -V -8 -T "artist=%a" -T "title=%t" -T "album=%g" -T "date=%y" -T "tracknumber=%n" -T "genre=%m" %s

TOC of the extracted CD

Track | Start | Length | Start sector | End sector
---------------------------------------------------------
1 | 0:00.00 | 10:50.00 | 0 | 48749
2 | 10:50.00 | 10:10.00 | 48750 | 94499
3 | 21:00.00 | 11:20.00 | 94500 | 145499
4 | 32:20.00 | 8:40.00 | 145500 | 184499
5 | 41:00.00 | 9:07.62 | 184500 | 225586
6 | 50:07.62 | 8:45.13 | 225587 | 264974
7 | 58:53.00 | 8:11.00 | 264975 | 301799

Track 1

Filename E:\david\flac\Antonio Vivaldi\Violin Concertos Op. 8 Nos. 1-7 (CD 1,9)\01 - Concerto No.1 In E Major Op. 8 No. 1, RV269, Spring.wav

Pre-gap length 0:00:02.00

Peak level 34.4 %
Track quality 100.0 %
Test CRC 1957A18C
Copy CRC 1957A18C
Accurately ripped (confidence 10) [636AEE58]
Copy OK

Track 2

Filename E:\david\flac\Antonio Vivaldi\Violin Concertos Op. 8 Nos. 1-7 (CD 1,9)\02 - Concerto No.2 In G Minor Op. 8 No. 2, RV315, Summer.wav

Pre-gap length 0:00:08.00

Peak level 61.1 %
Track quality 99.9 %
Test CRC C22CFACB
Copy CRC C22CFACB
Accurately ripped (confidence 9) [E13396F1]
Copy OK

Track 3

Filename E:\david\flac\Antonio Vivaldi\Violin Concertos Op. 8 Nos. 1-7 (CD 1,9)\03 - Concerto No.3 In F Major Op. 8 No. 3, RV257, Autumn.wav

Pre-gap length 0:00:06.00

Peak level 32.6 %
Track quality 100.0 %
Test CRC 0F1F2EBC
Copy CRC 0F1F2EBC
Accurately ripped (confidence 10) [2DCD25ED]
Copy OK

Track 4

Filename E:\david\flac\Antonio Vivaldi\Violin Concertos Op. 8 Nos. 1-7 (CD 1,9)\04 - Concerto No.4 In F Minor Op. 8 No. 4, RV297, Winter.wav

Pre-gap length 0:00:07.00

Peak level 42.2 %
Track quality 99.9 %
Test CRC 6984DBF4
Copy CRC 6984DBF4
Accurately ripped (confidence 10) [4FE15F1E]
Copy OK

Track 5

Filename E:\david\flac\Antonio Vivaldi\Violin Concertos Op. 8 Nos. 1-7 (CD 1,9)\05 - Concerto No.5 Op. 8 No. 5 In E Flat Major, RV253, La Tempesta Di Mare.wav

Pre-gap length 0:00:06.00

Peak level 56.5 %
Track quality 100.0 %
Test CRC 72E5E212
Copy CRC 72E5E212
Accurately ripped (confidence 10) [A2851803]
Copy OK

Track 6

Filename E:\david\flac\Antonio Vivaldi\Violin Concertos Op. 8 Nos. 1-7 (CD 1,9)\06 - Concerto No.6 Op. 8 No. 6 In C Major, RV180, Il Piacere.wav

Pre-gap length 0:00:09.00

Peak level 60.7 %
Track quality 100.0 %
Test CRC 40497B5D
Copy CRC 40497B5D
Accurately ripped (confidence 9) [D16E7D26]
Copy OK

Track 7

Filename E:\david\flac\Antonio Vivaldi\Violin Concertos Op. 8 Nos. 1-7 (CD 1,9)\07 - Concerto No.7 Op. 8 No. 7 In D Minor, RV258.wav

Pre-gap length 0:00:10.00

Peak level 55.2 %
Track quality 100.0 %
Test CRC EC249BB8
Copy CRC EC249BB8
Accurately ripped (confidence 9) [FA8AAE38]
Copy OK

All tracks accurately ripped

No errors occurred

End of status report
Exact Audio Copy V0.99 prebeta 4 from 23. January 2008

EAC extraction logfile from 11. November 2008, 17:46

Antonio Vivaldi / The Masterworks (CD 02) - Violin Concertos Op. 8 Nos. 8-12

Used drive : HL-DT-STDVD-ROM GDR8164B Adapter: 1 ID: 0

Read mode : Secure
Utilize accurate stream : Yes
Defeat audio cache : Yes
Make use of C2 pointers : No

Read offset correction : 102
Overread into Lead-In and Lead-Out : No
Fill up missing offset samples with silence : Yes
Delete leading and trailing silent blocks : No
Null samples used in CRC calculations : Yes
Used interface : Native Win32 interface for Win NT & 2000
Gap handling : Appended to previous track

Used output format : User Defined Encoder
Selected bitrate : 128 kBit/s
Quality : High
Add ID3 tag : No
Command line compressor : C:\Program Files\FLAC\flac.exe
Additional command line options : -V -8 -T "artist=%a" -T "title=%t" -T "album=%g" -T "date=%y" -T "tracknumber=%n" -T "genre=%m" %s

TOC of the extracted CD

Track | Start | Length | Start sector | End sector
---------------------------------------------------------
1 | 0:00.00 | 9:15.00 | 0 | 41624
2 | 9:15.00 | 8:10.00 | 41625 | 78374
3 | 17:25.00 | 8:31.00 | 78375 | 116699
4 | 25:56.00 | 12:11.00 | 116700 | 171524
5 | 38:07.00 | 9:01.00 | 171525 | 212099
6 | 47:08.00 | 9:05.00 | 212100 | 252974
7 | 56:13.00 | 10:16.00 | 252975 | 299174

Track 1

Filename L:\downloads\Antonio Vivaldi\The Masterworks (CD 02) - Violin Concertos Op. 8 Nos. 8-12\01 - Concerto No. 8 Op. 8 No. 8 in G minor (RV332).wav

Pre-gap length 0:00:02.00

Peak level 58.7 %
Track quality 100.0 %
Test CRC C594911E
Copy CRC C594911E
Accurately ripped (confidence 10) [94554CFC]
Copy OK

Track 2

Filename L:\downloads\Antonio Vivaldi\The Masterworks (CD 02) - Violin Concertos Op. 8 Nos. 8-12\02 - Concerto No. 9 Op. 8 No. 9 in D minor (RV236).wav

Pre-gap length 0:00:09.00

Peak level 53.1 %
Track quality 100.0 %
Test CRC 419ED10D
Copy CRC 419ED10D
Accurately ripped (confidence 10) [8E45D7B1]
Copy OK

Track 3

Filename L:\downloads\Antonio Vivaldi\The Masterworks (CD 02) - Violin Concertos Op. 8 Nos. 8-12\03 - Concerto No. 10 Op. 8 No. 10 in B flat major (RV362), 'La Caccia'.wav

Pre-gap length 0:00:12.00

Peak level 58.6 %
Track quality 100.0 %
Test CRC F44D3FCF
Copy CRC F44D3FCF
Accurately ripped (confidence 10) [0A92D5A1]
Copy OK

Track 4

Filename L:\downloads\Antonio Vivaldi\The Masterworks (CD 02) - Violin Concertos Op. 8 Nos. 8-12\04 - Concerto No. 11 Op. 8 No. 11 in D major (RV210).wav

Pre-gap length 0:00:08.00

Peak level 54.7 %
Track quality 100.0 %
Test CRC 4D35EC49
Copy CRC 4D35EC49
Accurately ripped (confidence 10) [B37D6784]
Copy OK

Track 5

Filename L:\downloads\Antonio Vivaldi\The Masterworks (CD 02) - Violin Concertos Op. 8 Nos. 8-12\05 - Concerto No. 12 Op. 8 No. 12 in C major (RV178).wav

Pre-gap length 0:00:11.00

Peak level 54.8 %
Track quality 100.0 %
Test CRC A04F31AA
Copy CRC A04F31AA
Accurately ripped (confidence 10) [C5B33DD6]
Copy OK

Track 6

Filename L:\downloads\Antonio Vivaldi\The Masterworks (CD 02) - Violin Concertos Op. 8 Nos. 8-12\06 - Concerto for Traverso & Strings in D major (RV429).wav

Pre-gap length 0:00:11.00

Peak level 51.5 %
Track quality 100.0 %
Test CRC 0047942E
Copy CRC 0047942E
Accurately ripped (confidence 10) [12CFED1F]
Copy OK

Track 7

Filename L:\downloads\Antonio Vivaldi\The Masterworks (CD 02) - Violin Concertos Op. 8 Nos. 8-12\07 - Concerto for Cello & Strings in B minor (RV424).wav

Pre-gap length 0:00:10.00

Peak level 50.9 %
Track quality 100.0 %
Test CRC 6C7886EB
Copy CRC 6C7886EB
Accurately ripped (confidence 9) [30E8B273]
Copy OK

All tracks accurately ripped

No errors occurred

End of status report
Exact Audio Copy V0.99 prebeta 4 from 23. January 2008

EAC extraction logfile from 10. November 2008, 15:50

Antonio Vivaldi / The Masterworks (CD 03) - L'Estro Armonico, Concertos Op. 3 Nos. 1-6

Used drive : MATSHITADVD-RAM UJ-820S Adapter: 1 ID: 0

Read mode : Secure
Utilize accurate stream : Yes
Defeat audio cache : Yes
Make use of C2 pointers : No

Read offset correction : 102
Overread into Lead-In and Lead-Out : No
Fill up missing offset samples with silence : Yes
Delete leading and trailing silent blocks : No
Null samples used in CRC calculations : Yes
Used interface : Native Win32 interface for Win NT & 2000
Gap handling : Appended to previous track

Used output format : User Defined Encoder
Selected bitrate : 128 kBit/s
Quality : High
Add ID3 tag : No
Command line compressor : C:\Program Files\FLAC\flac.exe
Additional command line options : -V -8 -T "artist=%a" -T "title=%t" -T "album=%g" -T "date=%y" -T "tracknumber=%n" -T "genre=%m" %s

TOC of the extracted CD

Track | Start | Length | Start sector | End sector
---------------------------------------------------------
1 | 0:00.32 | 2:51.25 | 32 | 12881
2 | 2:51.57 | 2:39.25 | 12882 | 24831
3 | 5:31.07 | 2:19.13 | 24832 | 35269
4 | 7:50.20 | 1:50.25 | 35270 | 43544
5 | 9:40.45 | 2:27.25 | 43545 | 54594
6 | 12:07.70 | 2:41.62 | 54595 | 66731
7 | 14:49.57 | 2:32.38 | 66732 | 78169
8 | 17:22.20 | 2:10.62 | 78170 | 87981
9 | 19:33.07 | 2:13.63 | 87982 | 98019
10 | 21:46.70 | 2:17.62 | 98020 | 108356
11 | 24:04.57 | 2:07.63 | 108357 | 117944
12 | 26:12.45 | 2:24.25 | 117945 | 128769
13 | 28:36.70 | 0:33.25 | 128770 | 131269
14 | 29:10.20 | 1:49.37 | 131270 | 139481
15 | 30:59.57 | 2:41.38 | 139482 | 151594
16 | 33:41.20 | 2:04.00 | 151595 | 160894
17 | 35:45.20 | 2:32.62 | 160895 | 172356
18 | 38:18.07 | 3:04.00 | 172357 | 186156
19 | 41:22.07 | 2:27.25 | 186157 | 197206
20 | 43:49.32 | 2:24.63 | 197207 | 208069

Track 1

Filename E:\david\flac\Antonio Vivaldi\The Masterworks (CD 03) - L'Estro Armonico, Concertos Op. 3 Nos. 1-6\01 - Concerto No. 1 Op. 3 in D major RV549 for 4 violins, cello, strings & b.c. - 1. Allegro.wav

Pre-gap length 0:00:02.32

Peak level 71.6 %
Track quality 99.9 %
Test CRC 882D1403
Copy CRC 882D1403
Accurately ripped (confidence 10) [E1EB6DEE]
Copy OK

Track 2

Filename E:\david\flac\Antonio Vivaldi\The Masterworks (CD 03) - L'Estro Armonico, Concertos Op. 3 Nos. 1-6\02 - Concerto No. 1 Op. 3 in D major RV549 for 4 violins, cello, strings & b.c. - 2. Largo e spiccato.wav

Peak level 60.9 %
Track quality 100.0 %
Test CRC E332A495
Copy CRC E332A495
Accurately ripped (confidence 10) [F72169A0]
Copy OK

Track 3

Filename E:\david\flac\Antonio Vivaldi\The Masterworks (CD 03) - L'Estro Armonico, Concertos Op. 3 Nos. 1-6\03 - Concerto No. 1 Op. 3 in D major RV549 for 4 violins, cello, strings & b.c. - 3. Allegro.wav

Peak level 84.1 %
Track quality 100.0 %
Test CRC BCE35407
Copy CRC BCE35407
Accurately ripped (confidence 10) [D3C14A2C]
Copy OK

Track 4

Filename E:\david\flac\Antonio Vivaldi\The Masterworks (CD 03) - L'Estro Armonico, Concertos Op. 3 Nos. 1-6\04 - Concerto No. 2 Op. 3 in G minor RV578 for 2 violins, cello, strings, & b.c. - 1. Adagio e spiccato.wav

Peak level 91.1 %
Track quality 100.0 %
Test CRC 191C2BD6
Copy CRC 191C2BD6
Accurately ripped (confidence 10) [50E9940B]
Copy OK

Track 5

Filename E:\david\flac\Antonio Vivaldi\The Masterworks (CD 03) - L'Estro Armonico, Concertos Op. 3 Nos. 1-6\05 - Concerto No. 2 Op. 3 in G minor RV578 for 2 violins, cello, strings, & b.c. - 2. Allegro.wav

Peak level 88.1 %
Track quality 100.0 %
Test CRC 85B523BF
Copy CRC 85B523BF
Accurately ripped (confidence 10) [5ACA31D2]
Copy OK

Track 6

Filename E:\david\flac\Antonio Vivaldi\The Masterworks (CD 03) - L'Estro Armonico, Concertos Op. 3 Nos. 1-6\06 - Concerto No. 2 Op. 3 in G minor RV578 for 2 violins, cello, strings, & b.c. - 3. Larghetto.wav

Peak level 86.6 %
Track quality 100.0 %
Test CRC 56B52A86
Copy CRC 56B52A86
Accurately ripped (confidence 10) [826BD8F8]
Copy OK

Track 7

Filename E:\david\flac\Antonio Vivaldi\The Masterworks (CD 03) - L'Estro Armonico, Concertos Op. 3 Nos. 1-6\07 - Concerto No. 2 Op. 3 in G minor RV578 for 2 violins, cello, strings, & b.c. - 4. Allegro.wav

Peak level 89.0 %
Track quality 100.0 %
Test CRC A1F89F7A
Copy CRC A1F89F7A
Accurately ripped (confidence 9) [3870629F]
Copy OK

Track 8

Filename E:\david\flac\Antonio Vivaldi\The Masterworks (CD 03) - L'Estro Armonico, Concertos Op. 3 Nos. 1-6\08 - Concerto No. 3 Op. 3 in G major RV310 for violin, strings &b.c. - 1. Allegro.wav

Peak level 88.8 %
Track quality 99.9 %
Test CRC 6A5E1FEA
Copy CRC 6A5E1FEA
Accurately ripped (confidence 10) [EF22B71A]
Copy OK

Track 9

Filename E:\david\flac\Antonio Vivaldi\The Masterworks (CD 03) - L'Estro Armonico, Concertos Op. 3 Nos. 1-6\09 - Concerto No. 3 Op. 3 in G major RV310 for violin, strings &b.c. - 2. Largo.wav

Peak level 80.8 %
Track quality 100.0 %
Test CRC F6937FA2
Copy CRC F6937FA2
Accurately ripped (confidence 10) [6E5C2C01]
Copy OK

Track 10

Filename E:\david\flac\Antonio Vivaldi\The Masterworks (CD 03) - L'Estro Armonico, Concertos Op. 3 Nos. 1-6\10 - Concerto No. 3 Op. 3 in G major RV310 for violin, strings &b.c. - 3. Allegro.wav

Peak level 83.5 %
Track quality 99.9 %
Test CRC CCA62F47
Copy CRC CCA62F47
Accurately ripped (confidence 10) [C1E0AF9E]
Copy OK

Track 11

Filename E:\david\flac\Antonio Vivaldi\The Masterworks (CD 03) - L'Estro Armonico, Concertos Op. 3 Nos. 1-6\11 - Concerto No. 4 Op. 3 in E minor RV550 for 4 violins, strings & b.c. - 1. Andante.wav

Peak level 91.1 %
Track quality 99.9 %
Test CRC 99639BA0
Copy CRC 99639BA0
Accurately ripped (confidence 10) [DD930C75]
Copy OK

Track 12

Filename E:\david\flac\Antonio Vivaldi\The Masterworks (CD 03) - L'Estro Armonico, Concertos Op. 3 Nos. 1-6\12 - Concerto No. 4 Op. 3 in E minor RV550 for 4 violins, strings & b.c. - 2. Allegro assai.wav

Peak level 85.8 %
Track quality 100.0 %
Test CRC 6AD43998
Copy CRC 6AD43998
Accurately ripped (confidence 10) [B8A8F83E]
Copy OK

Track 13

Filename E:\david\flac\Antonio Vivaldi\The Masterworks (CD 03) - L'Estro Armonico, Concertos Op. 3 Nos. 1-6\13 - Concerto No. 4 Op. 3 in E minor RV550 for 4 violins, strings & b.c. - 3. Adagio.wav

Peak level 46.4 %
Track quality 100.0 %
Test CRC 7A328FB0
Copy CRC 7A328FB0
Accurately ripped (confidence 10) [3EC61ACF]
Copy OK

Track 14

Filename E:\david\flac\Antonio Vivaldi\The Masterworks (CD 03) - L'Estro Armonico, Concertos Op. 3 Nos. 1-6\14 - Concerto No. 4 Op. 3 in E minor RV550 for 4 violins, strings & b.c. - 4. Allegro.wav

Peak level 87.4 %
Track quality 100.0 %
Test CRC 9A58FB8A
Copy CRC 9A58FB8A
Accurately ripped (confidence 10) [66E39B18]
Copy OK

Track 15

Filename E:\david\flac\Antonio Vivaldi\The Masterworks (CD 03) - L'Estro Armonico, Concertos Op. 3 Nos. 1-6\15 - Concerto No. 5 Op. 3 in A major RV519 for 2 violins, strings & b.c. - 1. Allegro.wav

Peak level 64.0 %
Track quality 100.0 %
Test CRC 61034DA8
Copy CRC 61034DA8
Accurately ripped (confidence 10) [6F09F6C3]
Copy OK

Track 16

Filename E:\david\flac\Antonio Vivaldi\The Masterworks (CD 03) - L'Estro Armonico, Concertos Op. 3 Nos. 1-6\16 - Concerto No. 5 Op. 3 in A major RV519 for 2 violins, strings & b.c. - 2. Largo.wav

Peak level 40.3 %
Track quality 100.0 %
Test CRC 1079E1C6
Copy CRC 1079E1C6
Accurately ripped (confidence 10) [8A2F1868]
Copy OK

Track 17

Filename E:\david\flac\Antonio Vivaldi\The Masterworks (CD 03) - L'Estro Armonico, Concertos Op. 3 Nos. 1-6\17 - Concerto No. 5 Op. 3 in A major RV519 for 2 violins, strings & b.c. - 3. Allegro.wav

Peak level 90.2 %
Track quality 100.0 %
Test CRC D2A4D2EB
Copy CRC D2A4D2EB
Accurately ripped (confidence 10) [7562F0C5]
Copy OK

Track 18

Filename E:\david\flac\Antonio Vivaldi\The Masterworks (CD 03) - L'Estro Armonico, Concertos Op. 3 Nos. 1-6\18 - Concerto No. 6 Op. 3 in A minor RV356 for violin, strings & b.c. - 1. Allegro.wav

Peak level 91.1 %
Track quality 100.0 %
Test CRC 594A796D
Copy CRC 594A796D
Accurately ripped (confidence 10) [6171EF63]
Copy OK

Track 19

Filename E:\david\flac\Antonio Vivaldi\The Masterworks (CD 03) - L'Estro Armonico, Concertos Op. 3 Nos. 1-6\19 - Concerto No. 6 Op. 3 in A minor RV356 for violin, strings & b.c. - 2. Largo.wav

Peak level 43.9 %
Track quality 100.0 %
Test CRC 1A2F316E
Copy CRC 1A2F316E
Accurately ripped (confidence 10) [84661AED]
Copy OK

Track 20

Filename E:\david\flac\Antonio Vivaldi\The Masterworks (CD 03) - L'Estro Armonico, Concertos Op. 3 Nos. 1-6\20 - Concerto No. 6 Op. 3 in A minor RV356 for violin, strings & b.c. - 3. Allegro.wav

Peak level 89.3 %
Track quality 100.0 %
Test CRC 7E48191B
Copy CRC 7E48191B
Accurately ripped (confidence 10) [BE05E7DF]
Copy OK

All tracks accurately ripped

No errors occurred

End of status report
Exact Audio Copy V0.99 prebeta 4 from 23. January 2008

EAC extraction logfile from 10. November 2008, 16:35

Antonio Vivaldi / The Masterworks (CD 04) - L'Estro Armonico Concertos Op. 3 Nos. 7-12

Used drive : MATSHITADVD-RAM UJ-820S Adapter: 1 ID: 0

Read mode : Secure
Utilize accurate stream : Yes
Defeat audio cache : Yes
Make use of C2 pointers : No

Read offset correction : 102
Overread into Lead-In and Lead-Out : No
Fill up missing offset samples with silence : Yes
Delete leading and trailing silent blocks : No
Null samples used in CRC calculations : Yes
Used interface : Native Win32 interface for Win NT & 2000
Gap handling : Appended to previous track

Used output format : User Defined Encoder
Selected bitrate : 128 kBit/s
Quality : High
Add ID3 tag : No
Command line compressor : C:\Program Files\FLAC\flac.exe
Additional command line options : -V -8 -T "artist=%a" -T "title=%t" -T "album=%g" -T "date=%y" -T "tracknumber=%n" -T "genre=%m" %s

TOC of the extracted CD

Track | Start | Length | Start sector | End sector
---------------------------------------------------------
1 | 0:00.32 | 2:21.25 | 32 | 10631
2 | 2:21.57 | 1:17.48 | 10632 | 16454
3 | 3:39.30 | 2:32.40 | 16455 | 27894
4 | 6:11.70 | 0:57.62 | 27895 | 32231
5 | 7:09.57 | 1:21.00 | 32232 | 38306
6 | 8:30.57 | 3:25.50 | 38307 | 53731
7 | 11:56.32 | 3:59.25 | 53732 | 71681
8 | 15:55.57 | 3:12.25 | 71682 | 86106
9 | 19:08.07 | 1:52.63 | 86107 | 94569
10 | 21:00.70 | 3:54.12 | 94570 | 112131
11 | 24:55.07 | 2:03.25 | 112132 | 121381
12 | 26:58.32 | 3:28.50 | 121382 | 137031
13 | 30:27.07 | 1:00.13 | 137032 | 141544
14 | 31:27.20 | 1:25.37 | 141545 | 147956
15 | 32:52.57 | 3:15.13 | 147957 | 162594
16 | 36:07.70 | 0:47.52 | 162595 | 166171
17 | 36:55.47 | 0:23.58 | 166172 | 167954
18 | 37:19.30 | 2:37.02 | 167955 | 179731
19 | 39:56.32 | 2:51.13 | 179732 | 192569
20 | 42:47.45 | 2:22.25 | 192570 | 203244
21 | 45:09.70 | 3:28.62 | 203245 | 218906
22 | 48:38.57 | 3:23.50 | 218907 | 234181
23 | 52:02.32 | 2:31.13 | 234182 | 245519

Track 1

Filename E:\david\flac\Antonio Vivaldi\The Masterworks (CD 04) - L'Estro Armonico Concertos Op. 3 Nos. 7-12\01 - Concerto No. 7 Op. 3 in F major RV567, 1. Andante.wav

Pre-gap length 0:00:02.32

Peak level 81.7 %
Track quality 100.0 %
Test CRC 2E0D08F0
Copy CRC 2E0D08F0
Accurately ripped (confidence 6) [60546986]
Copy OK

Track 2

Filename E:\david\flac\Antonio Vivaldi\The Masterworks (CD 04) - L'Estro Armonico Concertos Op. 3 Nos. 7-12\02 - Concerto No. 7 Op. 3 in F major RV567, 2. Adagio.wav

Peak level 85.4 %
Track quality 100.0 %
Test CRC 06D6738F
Copy CRC 06D6738F
Accurately ripped (confidence 6) [C99DF870]
Copy OK

Track 3

Filename E:\david\flac\Antonio Vivaldi\The Masterworks (CD 04) - L'Estro Armonico Concertos Op. 3 Nos. 7-12\03 - Concerto No. 7 Op. 3 in F major RV567, 3. Allegro.wav

Peak level 89.5 %
Track quality 100.0 %
Test CRC 77652686
Copy CRC 77652686
Accurately ripped (confidence 6) [1E7E53FF]
Copy OK

Track 4

Filename E:\david\flac\Antonio Vivaldi\The Masterworks (CD 04) - L'Estro Armonico Concertos Op. 3 Nos. 7-12\04 - Concerto No. 7 Op. 3 in F major RV567, 4. Adagio.wav

Peak level 61.6 %
Track quality 100.0 %
Test CRC 63171470
Copy CRC 63171470
Accurately ripped (confidence 6) [39FBC000]
Copy OK

Track 5

Filename E:\david\flac\Antonio Vivaldi\The Masterworks (CD 04) - L'Estro Armonico Concertos Op. 3 Nos. 7-12\05 - Concerto No. 7 Op. 3 in F major RV567, 5. Allegro.wav

Peak level 91.2 %
Track quality 99.8 %
Test CRC 38AEEB16
Copy CRC 38AEEB16
Accurately ripped (confidence 6) [8BF0F6A4]
Copy OK

Track 6

Filename E:\david\flac\Antonio Vivaldi\The Masterworks (CD 04) - L'Estro Armonico Concertos Op. 3 Nos. 7-12\06 - Concerto No. 8 Op. 3 in A minor RV522, 1. Allegro.wav

Peak level 88.5 %
Track quality 100.0 %
Test CRC 1A0EC0AF
Copy CRC 1A0EC0AF
Accurately ripped (confidence 6) [4CF968A9]
Copy OK

Track 7

Filename E:\david\flac\Antonio Vivaldi\The Masterworks (CD 04) - L'Estro Armonico Concertos Op. 3 Nos. 7-12\07 - Concerto No. 8 Op. 3 in A minor RV522, 2. Larghetto e spiritoso.wav

Peak level 43.4 %
Track quality 100.0 %
Test CRC CAE96CC9
Copy CRC CAE96CC9
Accurately ripped (confidence 6) [B38FC987]
Copy OK

Track 8

Filename E:\david\flac\Antonio Vivaldi\The Masterworks (CD 04) - L'Estro Armonico Concertos Op. 3 Nos. 7-12\08 - Concerto No. 8 Op. 3 in A minor RV522, 3. Allegro.wav

Peak level 93.8 %
Track quality 100.0 %
Test CRC 92F0E786
Copy CRC 92F0E786
Accurately ripped (confidence 6) [376847A4]
Copy OK

Track 9

Filename E:\david\flac\Antonio Vivaldi\The Masterworks (CD 04) - L'Estro Armonico Concertos Op. 3 Nos. 7-12\09 - Concerto No. 9 Op. 3 in D major RV230, 1. Allegro.wav

Peak level 82.6 %
Track quality 100.0 %
Test CRC B7943921
Copy CRC B7943921
Accurately ripped (confidence 6) [FDDDA0BE]
Copy OK

Track 10

Filename E:\david\flac\Antonio Vivaldi\The Masterworks (CD 04) - L'Estro Armonico Concertos Op. 3 Nos. 7-12\10 - Concerto No. 9 Op. 3 in D major RV230, 2. Larghetto.wav

Peak level 35.6 %
Track quality 100.0 %
Test CRC CB45DD10
Copy CRC CB45DD10
Accurately ripped (confidence 6) [59833553]
Copy OK

Track 11

Filename E:\david\flac\Antonio Vivaldi\The Masterworks (CD 04) - L'Estro Armonico Concertos Op. 3 Nos. 7-12\11 - Concerto No. 9 Op. 3 in D major RV230, 3. Allegro.wav

Peak level 87.3 %
Track quality 100.0 %
Test CRC 8499F2A4
Copy CRC 8499F2A4
Accurately ripped (confidence 6) [F3B15C82]
Copy OK

Track 12

Filename E:\david\flac\Antonio Vivaldi\The Masterworks (CD 04) - L'Estro Armonico Concertos Op. 3 Nos. 7-12\12 - Concerto No. 10 Op. 3 in B minor RV580, 1. Allegro.wav

Peak level 92.5 %
Track quality 100.0 %
Test CRC 21CCC9C2
Copy CRC 21CCC9C2
Accurately ripped (confidence 6) [FDA0BD6E]
Copy OK

Track 13

Filename E:\david\flac\Antonio Vivaldi\The Masterworks (CD 04) - L'Estro Armonico Concertos Op. 3 Nos. 7-12\13 - Concerto No. 10 Op. 3 in B minor RV580, 2. Largo.wav

Peak level 69.9 %
Track quality 100.0 %
Test CRC E6A5099E
Copy CRC E6A5099E
Accurately ripped (confidence 6) [699DB28B]
Copy OK

Track 14

Filename E:\david\flac\Antonio Vivaldi\The Masterworks (CD 04) - L'Estro Armonico Concertos Op. 3 Nos. 7-12\14 - Concerto No. 10 Op. 3 in B minor RV580, 3. Larghetto.wav

Peak level 90.6 %
Track quality 100.0 %
Test CRC 045BCAC8
Copy CRC 045BCAC8
Accurately ripped (confidence 6) [DF293AE8]
Copy OK

Track 15

Filename E:\david\flac\Antonio Vivaldi\The Masterworks (CD 04) - L'Estro Armonico Concertos Op. 3 Nos. 7-12\15 - Concerto No. 10 Op. 3 in B minor RV580, 4. Allegro.wav

Peak level 92.7 %
Track quality 100.0 %
Test CRC EDCBEDA0
Copy CRC EDCBEDA0
Accurately ripped (confidence 6) [16576A83]
Copy OK

Track 16

Filename E:\david\flac\Antonio Vivaldi\The Masterworks (CD 04) - L'Estro Armonico Concertos Op. 3 Nos. 7-12\16 - Concerto No. 11 Op. 3 in D minor RV565, 1. Allegro.wav

Peak level 80.5 %
Track quality 100.0 %
Test CRC 29917A76
Copy CRC 29917A76
Accurately ripped (confidence 6) [9AFFEE3E]
Copy OK

Track 17

Filename E:\david\flac\Antonio Vivaldi\The Masterworks (CD 04) - L'Estro Armonico Concertos Op. 3 Nos. 7-12\17 - Concerto No. 11 Op. 3 in D minor RV565, 2. Adagio e spiccato.wav

Peak level 33.0 %
Track quality 100.0 %
Test CRC BB793B38
Copy CRC BB793B38
Accurately ripped (confidence 6) [0EEE8760]
Copy OK

Track 18

Filename E:\david\flac\Antonio Vivaldi\The Masterworks (CD 04) - L'Estro Armonico Concertos Op. 3 Nos. 7-12\18 - Concerto No. 11 Op. 3 in D minor RV565, 3. Allegro.wav

Peak level 94.7 %
Track quality 100.0 %
Test CRC EE0E7C14
Copy CRC EE0E7C14
Accurately ripped (confidence 6) [DFB56466]
Copy OK

Track 19

Filename E:\david\flac\Antonio Vivaldi\The Masterworks (CD 04) - L'Estro Armonico Concertos Op. 3 Nos. 7-12\19 - Concerto No. 11 Op. 3 in D minor RV565, 4. Largo e spiccato.wav

Peak level 41.6 %
Track quality 100.0 %
Test CRC AE8D1B6B
Copy CRC AE8D1B6B
Accurately ripped (confidence 6) [1D90576F]
Copy OK

Track 20

Filename E:\david\flac\Antonio Vivaldi\The Masterworks (CD 04) - L'Estro Armonico Concertos Op. 3 Nos. 7-12\20 - Concerto No. 11 Op. 3 in D minor RV565, 5. Allegro.wav

Peak level 83.7 %
Track quality 100.0 %
Test CRC 1D950806
Copy CRC 1D950806
Accurately ripped (confidence 6) [A7193B9D]
Copy OK

Track 21

Filename E:\david\flac\Antonio Vivaldi\The Masterworks (CD 04) - L'Estro Armonico Concertos Op. 3 Nos. 7-12\21 - Concerto No. 12 Op. 3 in E major RV265, 1. Allegro.wav

Peak level 86.4 %
Track quality 100.0 %
Test CRC CC0095EC
Copy CRC CC0095EC
Accurately ripped (confidence 6) [BA383327]
Copy OK

Track 22

Filename E:\david\flac\Antonio Vivaldi\The Masterworks (CD 04) - L'Estro Armonico Concertos Op. 3 Nos. 7-12\22 - Concerto No. 12 Op. 3 in E major RV265, 2. Largo.wav

Peak level 41.2 %
Track quality 100.0 %
Test CRC E7FEB322
Copy CRC E7FEB322
Accurately ripped (confidence 5) [A39F6B03]
Copy OK

Track 23

Filename E:\david\flac\Antonio Vivaldi\The Masterworks (CD 04) - L'Estro Armonico Concertos Op. 3 Nos. 7-12\23 - Concerto No. 12 Op. 3 in E major RV265, 3. Allegro.wav

Peak level 90.1 %
Track quality 100.0 %
Test CRC C9EC8199
Copy CRC C9EC8199
Accurately ripped (confidence 6) [CE30EA20]
Copy OK

All tracks accurately ripped

No errors occurred

End of status report
Exact Audio Copy V0.99 prebeta 4 from 23. January 2008

EAC extraction logfile from 10. November 2008, 17:18

Antonio Vivaldi / The Masterworks (CD 05) - Recorder Concertos

Used drive : MATSHITADVD-RAM UJ-820S Adapter: 1 ID: 0

Read mode : Secure
Utilize accurate stream : Yes
Defeat audio cache : Yes
Make use of C2 pointers : No

Read offset correction : 102
Overread into Lead-In and Lead-Out : No
Fill up missing offset samples with silence : Yes
Delete leading and trailing silent blocks : No
Null samples used in CRC calculations : Yes
Used interface : Native Win32 interface for Win NT & 2000
Gap handling : Appended to previous track

Used output format : User Defined Encoder
Selected bitrate : 128 kBit/s
Quality : High
Add ID3 tag : No
Command line compressor : C:\Program Files\FLAC\flac.exe
Additional command line options : -V -8 -T "artist=%a" -T "title=%t" -T "album=%g" -T "date=%y" -T "tracknumber=%n" -T "genre=%m" %s

TOC of the extracted CD

Track | Start | Length | Start sector | End sector
---------------------------------------------------------
1 | 0:00.00 | 4:43.00 | 0 | 21224
2 | 4:43.00 | 2:34.00 | 21225 | 32774
3 | 7:17.00 | 3:48.00 | 32775 | 49874
4 | 11:05.00 | 4:08.00 | 49875 | 68474
5 | 15:13.00 | 1:54.37 | 68475 | 77061
6 | 17:07.37 | 3:09.38 | 77062 | 91274
7 | 20:17.00 | 2:27.60 | 91275 | 102359
8 | 22:44.60 | 1:22.05 | 102360 | 108514
9 | 24:06.65 | 2:06.10 | 108515 | 117974
10 | 26:13.00 | 3:48.62 | 117975 | 135136
11 | 30:01.62 | 4:31.50 | 135137 | 155511
12 | 34:33.37 | 3:01.38 | 155512 | 169124
13 | 37:35.00 | 3:14.00 | 169125 | 183674
14 | 40:49.00 | 3:28.37 | 183675 | 199311
15 | 44:17.37 | 1:47.38 | 199312 | 207374
16 | 46:05.00 | 1:31.45 | 207375 | 214244
17 | 47:36.45 | 0:50.15 | 214245 | 218009
18 | 48:26.60 | 0:56.05 | 218010 | 222214
19 | 49:22.65 | 1:02.10 | 222215 | 226874
20 | 50:25.00 | 1:24.70 | 226875 | 233244
21 | 51:49.70 | 2:42.05 | 233245 | 245399

Track 1

Filename E:\david\flac\Antonio Vivaldi\The Masterworks (CD 05) - Recorder Concertos\01 - Concerto In C Minor RV441, 1 Allegro Non Molto.wav

Pre-gap length 0:00:02.00

Peak level 65.9 %
Track quality 100.0 %
Test CRC 068130A9
Copy CRC 068130A9
Accurately ripped (confidence 9) [0508DB53]
Copy OK

Track 2

Filename E:\david\flac\Antonio Vivaldi\The Masterworks (CD 05) - Recorder Concertos\02 - Concerto In C Minor RV441, 2 Largo.wav

Peak level 92.1 %
Track quality 100.0 %
Test CRC 2178A7BC
Copy CRC 2178A7BC
Accurately ripped (confidence 10) [C4E0B126]
Copy OK

Track 3

Filename E:\david\flac\Antonio Vivaldi\The Masterworks (CD 05) - Recorder Concertos\03 - Concerto In C Minor RV441, 3 Allegro.wav

Peak level 74.5 %
Track quality 100.0 %
Test CRC 0EC6FEDF
Copy CRC 0EC6FEDF
Accurately ripped (confidence 10) [14017125]
Copy OK

Track 4

Filename E:\david\flac\Antonio Vivaldi\The Masterworks (CD 05) - Recorder Concertos\04 - Concerto In C Major RV444, 1 Allegro Non Molto.wav

Peak level 72.4 %
Track quality 100.0 %
Test CRC 8E425309
Copy CRC 8E425309
Accurately ripped (confidence 10) [3CDF1088]
Copy OK

Track 5

Filename E:\david\flac\Antonio Vivaldi\The Masterworks (CD 05) - Recorder Concertos\05 - Concerto In C Major RV444, 2 Largo.wav

Peak level 44.9 %
Track quality 100.0 %
Test CRC D87A4FAA
Copy CRC D87A4FAA
Accurately ripped (confidence 10) [7F395DCE]
Copy OK

Track 6

Filename E:\david\flac\Antonio Vivaldi\The Masterworks (CD 05) - Recorder Concertos\06 - Concerto In C Major RV444, 3 Allegro Molto.wav

Peak level 82.6 %
Track quality 100.0 %
Test CRC C1D91E47
Copy CRC C1D91E47
Accurately ripped (confidence 10) [288D05F6]
Copy OK

Track 7

Filename E:\david\flac\Antonio Vivaldi\The Masterworks (CD 05) - Recorder Concertos\07 - Concerto In F Major RV433, 1 Allegro.wav

Peak level 51.3 %
Track quality 100.0 %
Test CRC A1CC6D0F
Copy CRC A1CC6D0F
Accurately ripped (confidence 10) [9052FB8F]
Copy OK

Track 8

Filename E:\david\flac\Antonio Vivaldi\The Masterworks (CD 05) - Recorder Concertos\08 - Concerto In F Major RV433, 2 Largo.wav

Peak level 40.4 %
Track quality 100.0 %
Test CRC 874CDC4D
Copy CRC 874CDC4D
Accurately ripped (confidence 10) [3BD3B4D9]
Copy OK

Track 9

Filename E:\david\flac\Antonio Vivaldi\The Masterworks (CD 05) - Recorder Concertos\09 - Concerto In F Major RV433, 3 Presto.wav

Peak level 54.5 %
Track quality 100.0 %
Test CRC 5DC7D9A6
Copy CRC 5DC7D9A6
Accurately ripped (confidence 10) [CF1672F3]
Copy OK

Track 10

Filename E:\david\flac\Antonio Vivaldi\The Masterworks (CD 05) - Recorder Concertos\10 - Concerto In C Major RV443, 1 Allegro.wav

Peak level 60.9 %
Track quality 100.0 %
Test CRC 5E6167F1
Copy CRC 5E6167F1
Accurately ripped (confidence 10) [CE016B6D]
Copy OK

Track 11

Filename E:\david\flac\Antonio Vivaldi\The Masterworks (CD 05) - Recorder Concertos\11 - Concerto In C Major RV443, 2 Largo.wav

Peak level 34.9 %
Track quality 100.0 %
Test CRC 0FEFEC84
Copy CRC 0FEFEC84
Accurately ripped (confidence 10) [F3A1F20D]
Copy OK

Track 12

Filename E:\david\flac\Antonio Vivaldi\The Masterworks (CD 05) - Recorder Concertos\12 - Concerto In C Major RV443, 3 Allegro Molto.wav

Peak level 54.9 %
Track quality 100.0 %
Test CRC 81BE434F
Copy CRC 81BE434F
Accurately ripped (confidence 10) [986CAF24]
Copy OK

Track 13

Filename E:\david\flac\Antonio Vivaldi\The Masterworks (CD 05) - Recorder Concertos\13 - Concerto In F Major RV434, 1 Allegro Ma Non Tanto.wav

Peak level 60.0 %
Track quality 100.0 %
Test CRC AC4943C7
Copy CRC AC4943C7
Accurately ripped (confidence 10) [6120702A]
Copy OK

Track 14

Filename E:\david\flac\Antonio Vivaldi\The Masterworks (CD 05) - Recorder Concertos\14 - Concerto In F Major RV434, 2 Largo E Cantabile.wav

Peak level 45.4 %
Track quality 100.0 %
Test CRC 2BEAC743
Copy CRC 2BEAC743
Accurately ripped (confidence 10) [BF7725C7]
Copy OK

Track 15

Filename E:\david\flac\Antonio Vivaldi\The Masterworks (CD 05) - Recorder Concertos\15 - Concerto In F Major RV434, 3 Allegro.wav

Peak level 82.0 %
Track quality 100.0 %
Test CRC 3A9D1639
Copy CRC 3A9D1639
Accurately ripped (confidence 10) [1DE81D93]
Copy OK

Track 16

Filename E:\david\flac\Antonio Vivaldi\The Masterworks (CD 05) - Recorder Concertos\16 - Concerto In G Minor RV439, 1 Largo.wav

Peak level 61.6 %
Track quality 100.0 %
Test CRC AADF75C8
Copy CRC AADF75C8
Accurately ripped (confidence 10) [0B953D47]
Copy OK

Track 17

Filename E:\david\flac\Antonio Vivaldi\The Masterworks (CD 05) - Recorder Concertos\17 - Concerto In G Minor RV439, 2 Presto, Fantasmi.wav

Peak level 85.1 %
Track quality 100.0 %
Test CRC E476B0E3
Copy CRC E476B0E3
Accurately ripped (confidence 10) [61661C16]
Copy OK

Track 18

Filename E:\david\flac\Antonio Vivaldi\The Masterworks (CD 05) - Recorder Concertos\18 - Concerto In G Minor RV439, 3 Largo.wav

Peak level 48.4 %
Track quality 100.0 %
Test CRC B8C0F7A6
Copy CRC B8C0F7A6
Accurately ripped (confidence 10) [C538A473]
Copy OK

Track 19

Filename E:\david\flac\Antonio Vivaldi\The Masterworks (CD 05) - Recorder Concertos\19 - Concerto In G Minor RV439, 4 Presto.wav

Peak level 90.1 %
Track quality 100.0 %
Test CRC AB4F5F5E
Copy CRC AB4F5F5E
Accurately ripped (confidence 10) [0BB03316]
Copy OK

Track 20

Filename E:\david\flac\Antonio Vivaldi\The Masterworks (CD 05) - Recorder Concertos\20 - Concerto In G Minor RV439, 5 Largo, Il Sonno.wav

Peak level 29.6 %
Track quality 100.0 %
Test CRC AA5B8B90
Copy CRC AA5B8B90
Accurately ripped (confidence 10) [21F08444]
Copy OK

Track 21

Filename E:\david\flac\Antonio Vivaldi\The Masterworks (CD 05) - Recorder Concertos\21 - Concerto In G Minor RV439, 6 Allegro.wav

Peak level 81.2 %
Track quality 99.9 %
Test CRC 9B4EBFCF
Copy CRC 9B4EBFCF
Accurately ripped (confidence 10) [0B0864BF]
Copy OK

All tracks accurately ripped

No errors occurred

End of status report
Exact Audio Copy V0.99 prebeta 4 from 23. January 2008

EAC extraction logfile from 10. November 2008, 17:57

Antonio Vivaldi / The Masterworks (CD 06) - Concertos & Symphonies for Strings Vol.1

Used drive : MATSHITADVD-RAM UJ-820S Adapter: 1 ID: 0

Read mode : Secure
Utilize accurate stream : Yes
Defeat audio cache : Yes
Make use of C2 pointers : No

Read offset correction : 102
Overread into Lead-In and Lead-Out : No
Fill up missing offset samples with silence : Yes
Delete leading and trailing silent blocks : No
Null samples used in CRC calculations : Yes
Used interface : Native Win32 interface for Win NT & 2000
Gap handling : Appended to previous track

Used output format : User Defined Encoder
Selected bitrate : 128 kBit/s
Quality : High
Add ID3 tag : No
Command line compressor : C:\Program Files\FLAC\flac.exe
Additional command line options : -V -8 -T "artist=%a" -T "title=%t" -T "album=%g" -T "date=%y" -T "tracknumber=%n" -T "genre=%m" %s

TOC of the extracted CD

Track | Start | Length | Start sector | End sector
---------------------------------------------------------
1 | 0:01.00 | 1:31.22 | 75 | 6921
2 | 1:32.22 | 1:12.69 | 6922 | 12390
3 | 2:45.16 | 1:10.68 | 12391 | 17708
4 | 3:56.09 | 2:16.63 | 17709 | 27971
5 | 6:12.72 | 1:54.04 | 27972 | 36525
6 | 8:07.01 | 2:07.10 | 36526 | 46060
7 | 10:14.11 | 1:37.53 | 46061 | 53388
8 | 11:51.64 | 2:28.61 | 53389 | 64549
9 | 14:20.50 | 1:15.00 | 64550 | 70174
10 | 15:35.50 | 0:57.55 | 70175 | 74504
11 | 16:33.30 | 1:29.60 | 74505 | 81239
12 | 18:03.15 | 0:39.06 | 81240 | 84170
13 | 18:42.21 | 0:50.38 | 84171 | 87958
14 | 19:32.59 | 1:24.51 | 87959 | 94309
15 | 20:57.35 | 1:58.02 | 94310 | 103161
16 | 22:55.37 | 1:04.21 | 103162 | 107982
17 | 23:59.58 | 2:38.31 | 107983 | 119863
18 | 26:38.14 | 1:59.44 | 119864 | 128832
19 | 28:37.58 | 1:38.57 | 128833 | 136239
20 | 30:16.40 | 2:28.23 | 136240 | 147362
21 | 32:44.63 | 0:47.73 | 147363 | 150960
22 | 33:32.61 | 2:30.24 | 150961 | 162234
23 | 36:03.10 | 1:21.53 | 162235 | 168362
24 | 37:24.63 | 0:45.54 | 168363 | 171791
25 | 38:10.42 | 1:42.53 | 171792 | 179494
26 | 39:53.20 | 1:49.23 | 179495 | 187692
27 | 41:42.43 | 1:30.36 | 187693 | 194478
28 | 43:13.04 | 3:47.20 | 194479 | 211523
29 | 47:00.24 | 2:34.62 | 211524 | 223135

Track 1

Filename E:\david\flac\Antonio Vivaldi\The Masterworks (CD 06) - Concertos & Symphonies for Strings Vol.1\01 - Concerto in C major RV109, 1. Allegro.wav

Pre-gap length 0:00:03.00

Peak level 58.9 %
Track quality 99.8 %
Test CRC 4DFB0A5F
Copy CRC 4DFB0A5F
Accurately ripped (confidence 9) [99D1B041]
Copy OK

Track 2

Filename E:\david\flac\Antonio Vivaldi\The Masterworks (CD 06) - Concertos & Symphonies for Strings Vol.1\02 - Concerto in C major RV109, 2. Adagio.wav

Peak level 46.8 %
Track quality 100.0 %
Test CRC A39D2463
Copy CRC A39D2463
Accurately ripped (confidence 9) [F59D1D51]
Copy OK

Track 3

Filename E:\david\flac\Antonio Vivaldi\The Masterworks (CD 06) - Concertos & Symphonies for Strings Vol.1\03 - Concerto in C major RV109, 3. Allegro molto.wav

Peak level 55.3 %
Track quality 100.0 %
Test CRC AD5EFBCB
Copy CRC AD5EFBCB
Accurately ripped (confidence 8) [C4733076]
Copy OK

Track 4

Filename E:\david\flac\Antonio Vivaldi\The Masterworks (CD 06) - Concertos & Symphonies for Strings Vol.1\04 - Concerto in C minor RV120, 1. Allegro non molto.wav

Pre-gap length 0:00:02.45

Peak level 76.1 %
Track quality 100.0 %
Test CRC 574710AD
Copy CRC 574710AD
Accurately ripped (confidence 9) [DB71087B]
Copy OK

Track 5

Filename E:\david\flac\Antonio Vivaldi\The Masterworks (CD 06) - Concertos & Symphonies for Strings Vol.1\05 - Concerto in C minor RV120, 2. Largo.wav

Pre-gap length 0:00:00.60

Peak level 42.4 %
Track quality 100.0 %
Test CRC 185E66FE
Copy CRC 185E66FE
Accurately ripped (confidence 9) [082458A1]
Copy OK

Track 6

Filename E:\david\flac\Antonio Vivaldi\The Masterworks (CD 06) - Concertos & Symphonies for Strings Vol.1\06 - Concerto in C minor RV120, 3. Allegro.wav

Pre-gap length 0:00:00.60

Peak level 79.7 %
Track quality 100.0 %
Test CRC 62EC55DC
Copy CRC 62EC55DC
Accurately ripped (confidence 9) [E12BFB5D]
Copy OK

Track 7

Filename E:\david\flac\Antonio Vivaldi\The Masterworks (CD 06) - Concertos & Symphonies for Strings Vol.1\07 - Concerto in D major RV126, 1. Allegro.wav

Pre-gap length 0:00:02.45

Peak level 94.4 %
Track quality 100.0 %
Test CRC D630C2EE
Copy CRC D630C2EE
Accurately ripped (confidence 9) [6E26C8BD]
Copy OK

Track 8

Filename E:\david\flac\Antonio Vivaldi\The Masterworks (CD 06) - Concertos & Symphonies for Strings Vol.1\08 - Concerto in D major RV126, 2. Andante.wav

Peak level 86.0 %
Track quality 100.0 %
Test CRC B1E563A5
Copy CRC B1E563A5
Accurately ripped (confidence 9) [5EE01D01]
Copy OK

Track 9

Filename E:\david\flac\Antonio Vivaldi\The Masterworks (CD 06) - Concertos & Symphonies for Strings Vol.1\09 - Concerto in D major RV126, 3. Allegro molto.wav

Peak level 83.9 %
Track quality 100.0 %
Test CRC 7022AFBE
Copy CRC 7022AFBE
Accurately ripped (confidence 9) [2EC09144]
Copy OK

Track 10

Filename E:\david\flac\Antonio Vivaldi\The Masterworks (CD 06) - Concertos & Symphonies for Strings Vol.1\10 - Concerto in D minor RV129, Madrigalesco, 1. Adagio.wav

Pre-gap length 0:00:02.45

Peak level 70.9 %
Track quality 100.0 %
Test CRC 9049309C
Copy CRC 9049309C
Accurately ripped (confidence 9) [D2EF0F2A]
Copy OK

Track 11

Filename E:\david\flac\Antonio Vivaldi\The Masterworks (CD 06) - Concertos & Symphonies for Strings Vol.1\11 - Concerto in D minor RV129, Madrigalesco, 2. Allegro.wav

Peak level 72.4 %
Track quality 100.0 %
Test CRC 0DD767AB
Copy CRC 0DD767AB
Accurately ripped (confidence 9) [07FD19FC]
Copy OK

Track 12

Filename E:\david\flac\Antonio Vivaldi\The Masterworks (CD 06) - Concertos & Symphonies for Strings Vol.1\12 - Concerto in D minor RV129, Madrigalesco, 3. Adagio.wav

Peak level 30.8 %
Track quality 100.0 %
Test CRC FA79919E
Copy CRC FA79919E
Accurately ripped (confidence 9) [CD6D197B]
Copy OK

Track 13

Filename E:\david\flac\Antonio Vivaldi\The Masterworks (CD 06) - Concertos & Symphonies for Strings Vol.1\13 - Concerto in D minor RV129, Madrigalesco, 4. Allegro moderato.wav

Peak level 69.5 %
Track quality 100.0 %
Test CRC BC16EA31
Copy CRC BC16EA31
Accurately ripped (confidence 9) [6F60E3E3]
Copy OK

Track 14

Filename E:\david\flac\Antonio Vivaldi\The Masterworks (CD 06) - Concertos & Symphonies for Strings Vol.1\14 - Symphony in E major RV131, 1. Allegro.wav

Pre-gap length 0:00:02.45

Peak level 62.7 %
Track quality 99.8 %
Test CRC 86013BE4
Copy CRC 86013BE4
Accurately ripped (confidence 9) [C98F1AE5]
Copy OK

Track 15

Filename E:\david\flac\Antonio Vivaldi\The Masterworks (CD 06) - Concertos & Symphonies for Strings Vol.1\15 - Symphony in E major RV131, 2. Andante.wav

Pre-gap length 0:00:00.60

Peak level 60.6 %
Track quality 100.0 %
Test CRC 66F45AA4
Copy CRC 66F45AA4
Accurately ripped (confidence 9) [318297FE]
Copy OK

Track 16

Filename E:\david\flac\Antonio Vivaldi\The Masterworks (CD 06) - Concertos & Symphonies for Strings Vol.1\16 - Symphony in E major RV131, 3. Allegro.wav

Pre-gap length 0:00:00.60

Peak level 64.9 %
Track quality 100.0 %
Test CRC 4A2371A3
Copy CRC 4A2371A3
Accurately ripped (confidence 9) [0CE7276A]
Copy OK

Track 17

Filename E:\david\flac\Antonio Vivaldi\The Masterworks (CD 06) - Concertos & Symphonies for Strings Vol.1\17 - Concerto in E minor RV134, 1. Allegro moderato.wav

Pre-gap length 0:00:02.45

Peak level 91.5 %
Track quality 99.9 %
Test CRC D515B931
Copy CRC D515B931
Accurately ripped (confidence 9) [2E025DE8]
Copy OK

Track 18

Filename E:\david\flac\Antonio Vivaldi\The Masterworks (CD 06) - Concertos & Symphonies for Strings Vol.1\18 - Concerto in E minor RV134, 2. Andante.wav

Pre-gap length 0:00:00.60

Peak level 62.0 %
Track quality 100.0 %
Test CRC AFA04670
Copy CRC AFA04670
Accurately ripped (confidence 9) [04D226CD]
Copy OK

Track 19

Filename E:\david\flac\Antonio Vivaldi\The Masterworks (CD 06) - Concertos & Symphonies for Strings Vol.1\19 - Concerto in E minor RV134, 3. Allegro.wav

Pre-gap length 0:00:00.60

Peak level 74.9 %
Track quality 100.0 %
Test CRC 96A6CC16
Copy CRC 96A6CC16
Accurately ripped (confidence 9) [FB208306]
Copy OK

Track 20

Filename E:\david\flac\Antonio Vivaldi\The Masterworks (CD 06) - Concertos & Symphonies for Strings Vol.1\20 - Concerto in F minor RV143, 1. Allegro.wav

Pre-gap length 0:00:02.45

Peak level 62.1 %
Track quality 100.0 %
Test CRC 797A12F1
Copy CRC 797A12F1
Accurately ripped (confidence 9) [7EB3C193]
Copy OK

Track 21

Filename E:\david\flac\Antonio Vivaldi\The Masterworks (CD 06) - Concertos & Symphonies for Strings Vol.1\21 - Concerto in F minor RV143, 2. Adagio.wav

Pre-gap length 0:00:00.60

Peak level 43.8 %
Track quality 100.0 %
Test CRC 5E3CA602
Copy CRC 5E3CA602
Accurately ripped (confidence 9) [4C9DC3FF]
Copy OK

Track 22

Filename E:\david\flac\Antonio Vivaldi\The Masterworks (CD 06) - Concertos & Symphonies for Strings Vol.1\22 - Concerto in F minor RV143, 3. Allegro assai.wav

Peak level 62.0 %
Track quality 100.0 %
Test CRC 86BA1AE0
Copy CRC 86BA1AE0
Accurately ripped (confidence 9) [43453574]
Copy OK

Track 23

Filename E:\david\flac\Antonio Vivaldi\The Masterworks (CD 06) - Concertos & Symphonies for Strings Vol.1\23 - Concerto in G major RV151, Alla Rustica, 1. Presto.wav

Pre-gap length 0:00:02.45

Peak level 62.5 %
Track quality 99.8 %
Test CRC 9F129703
Copy CRC 9F129703
Accurately ripped (confidence 9) [1105782B]
Copy OK

Track 24

Filename E:\david\flac\Antonio Vivaldi\The Masterworks (CD 06) - Concertos & Symphonies for Strings Vol.1\24 - Concerto in G major RV151, Alla Rustica, 2. Adagio.wav

Peak level 89.3 %
Track quality 100.0 %
Test CRC 4160FBD4
Copy CRC 4160FBD4
Accurately ripped (confidence 9) [FAF473B4]
Copy OK

Track 25

Filename E:\david\flac\Antonio Vivaldi\The Masterworks (CD 06) - Concertos & Symphonies for Strings Vol.1\25 - Concerto in G major RV151, Alla Rustica, 3. Allegro.wav

Peak level 68.7 %
Track quality 100.0 %
Test CRC 47D4155D
Copy CRC 47D4155D
Accurately ripped (confidence 9) [331AEA57]
Copy OK

Track 26

Filename E:\david\flac\Antonio Vivaldi\The Masterworks (CD 06) - Concertos & Symphonies for Strings Vol.1\26 - Concerto in G minor RV155, 1. Adagio.wav

Pre-gap length 0:00:02.45

Peak level 46.4 %
Track quality 100.0 %
Test CRC 904F349C
Copy CRC 904F349C
Accurately ripped (confidence 9) [DBD41E53]
Copy OK

Track 27

Filename E:\david\flac\Antonio Vivaldi\The Masterworks (CD 06) - Concertos & Symphonies for Strings Vol.1\27 - Concerto in G minor RV155, 2. Allegro.wav

Peak level 94.9 %
Track quality 100.0 %
Test CRC D4AA8561
Copy CRC D4AA8561
Accurately ripped (confidence 9) [DFE8DB63]
Copy OK

Track 28

Filename E:\david\flac\Antonio Vivaldi\The Masterworks (CD 06) - Concertos & Symphonies for Strings Vol.1\28 - Concerto in G minor RV155, 3. Largo.wav

Pre-gap length 0:00:00.60

Peak level 40.7 %
Track quality 100.0 %
Test CRC CC5E7087
Copy CRC CC5E7087
Accurately ripped (confidence 9) [B9374B8C]
Copy OK

Track 29

Filename E:\david\flac\Antonio Vivaldi\The Masterworks (CD 06) - Concertos & Symphonies for Strings Vol.1\29 - Concerto in G minor RV155, 4. Allegro.wav

Peak level 79.8 %
Track quality 100.0 %
Test CRC AA1DB769
Copy CRC AA1DB769
Accurately ripped (confidence 9) [0A70A544]
Copy OK

All tracks accurately ripped

No errors occurred

End of status report
Exact Audio Copy V0.99 prebeta 4 from 23. January 2008

EAC extraction logfile from 10. November 2008, 18:43

Antonio Vivaldi / The Masterworks (CD 07) - Concertos & Symphonies for Strings Vol. II

Used drive : MATSHITADVD-RAM UJ-820S Adapter: 1 ID: 0

Read mode : Secure
Utilize accurate stream : Yes
Defeat audio cache : Yes
Make use of C2 pointers : No

Read offset correction : 102
Overread into Lead-In and Lead-Out : No
Fill up missing offset samples with silence : Yes
Delete leading and trailing silent blocks : No
Null samples used in CRC calculations : Yes
Used interface : Native Win32 interface for Win NT & 2000
Gap handling : Appended to previous track

Used output format : User Defined Encoder
Selected bitrate : 128 kBit/s
Quality : High
Add ID3 tag : No
Command line compressor : C:\Program Files\FLAC\flac.exe
Additional command line options : -V -8 -T "artist=%a" -T "title=%t" -T "album=%g" -T "date=%y" -T "tracknumber=%n" -T "genre=%m" %s

TOC of the extracted CD

Track | Start | Length | Start sector | End sector
---------------------------------------------------------
1 | 0:00.33 | 1:54.35 | 33 | 8617
2 | 1:54.68 | 1:04.42 | 8618 | 13459
3 | 2:59.35 | 1:14.23 | 13460 | 19032
4 | 4:13.58 | 2:21.67 | 19033 | 29674
5 | 6:35.50 | 2:11.30 | 29675 | 39529
6 | 8:47.05 | 1:34.15 | 39530 | 46594
7 | 10:21.20 | 2:09.65 | 46595 | 56334
8 | 12:31.10 | 1:19.60 | 56335 | 62319
9 | 13:50.70 | 2:26.45 | 62320 | 73314
10 | 16:17.40 | 1:41.25 | 73315 | 80914
11 | 17:58.65 | 1:23.25 | 80915 | 87164
12 | 19:22.15 | 1:17.48 | 87165 | 92987
13 | 20:39.63 | 1:43.17 | 92988 | 100729
14 | 22:23.05 | 2:01.60 | 100730 | 109864
15 | 24:24.65 | 1:18.43 | 109865 | 115757
16 | 25:43.33 | 1:44.17 | 115758 | 123574
17 | 27:27.50 | 1:28.15 | 123575 | 130189
18 | 28:55.65 | 1:47.43 | 130190 | 138257
19 | 30:43.33 | 1:38.42 | 138258 | 145649
20 | 32:22.00 | 2:02.33 | 145650 | 154832
21 | 34:24.33 | 1:01.35 | 154833 | 159442
22 | 35:25.68 | 3:04.72 | 159443 | 173314
23 | 38:30.65 | 1:21.50 | 173315 | 179439
24 | 39:52.40 | 2:12.25 | 179440 | 189364
25 | 42:04.65 | 1:27.35 | 189365 | 195924
26 | 43:32.25 | 1:15.73 | 195925 | 201622
27 | 44:48.23 | 2:02.50 | 201623 | 210822
28 | 46:50.73 | 1:39.25 | 210823 | 218272
29 | 48:30.23 | 1:15.25 | 218273 | 223922
30 | 49:45.48 | 1:10.60 | 223923 | 229232

Track 1

Filename E:\david\flac\Antonio Vivaldi\The Masterworks (CD 07) - Concertos & Symphonies for Strings Vol. II\01 - Concerto in C major RV110, 1 Allegro.wav

Pre-gap length 0:00:02.33

Peak level 73.9 %
Track quality 100.0 %
Test CRC 7535FF0C
Copy CRC 7535FF0C
Accurately ripped (confidence 11) [7C1042E5]
Copy OK

Track 2

Filename E:\david\flac\Antonio Vivaldi\The Masterworks (CD 07) - Concertos & Symphonies for Strings Vol. II\02 - Concerto in C major RV110, 2 Largo.wav

Peak level 63.7 %
Track quality 100.0 %
Test CRC FC7A61C0
Copy CRC FC7A61C0
Accurately ripped (confidence 11) [A9492742]
Copy OK

Track 3

Filename E:\david\flac\Antonio Vivaldi\The Masterworks (CD 07) - Concertos & Symphonies for Strings Vol. II\03 - Concerto in C major RV110, 3 Allegro.wav

Peak level 72.1 %
Track quality 100.0 %
Test CRC 1B29786A
Copy CRC 1B29786A
Accurately ripped (confidence 11) [F0B73183]
Copy OK

Track 4

Filename E:\david\flac\Antonio Vivaldi\The Masterworks (CD 07) - Concertos & Symphonies for Strings Vol. II\04 - Concerto in C minor RV118, 1 Allegro.wav

Pre-gap length 0:00:04.25

Peak level 100.0 %
Track quality 100.0 %
Test CRC C7CD0F7C
Copy CRC C7CD0F7C
Accurately ripped (confidence 11) [87D50331]
Copy OK

Track 5

Filename E:\david\flac\Antonio Vivaldi\The Masterworks (CD 07) - Concertos & Symphonies for Strings Vol. II\05 - Concerto in C minor RV118, 2 Largo.wav

Peak level 56.1 %
Track quality 100.0 %
Test CRC D628AC03
Copy CRC D628AC03
Accurately ripped (confidence 11) [2AC940EE]
Copy OK

Track 6

Filename E:\david\flac\Antonio Vivaldi\The Masterworks (CD 07) - Concertos & Symphonies for Strings Vol. II\06 - Concerto in C minor RV118, 3 Allegro.wav

Peak level 66.3 %
Track quality 100.0 %
Test CRC 0B6865EE
Copy CRC 0B6865EE
Accurately ripped (confidence 11) [BA16AEBB]
Copy OK

Track 7

Filename E:\david\flac\Antonio Vivaldi\The Masterworks (CD 07) - Concertos & Symphonies for Strings Vol. II\07 - Concerto in D major RV123, 1 Allegro.wav

Pre-gap length 0:00:04.62

Peak level 69.7 %
Track quality 100.0 %
Test CRC F81DEA9B
Copy CRC F81DEA9B
Accurately ripped (confidence 11) [12B88089]
Copy OK

Track 8

Filename E:\david\flac\Antonio Vivaldi\The Masterworks (CD 07) - Concertos & Symphonies for Strings Vol. II\08 - Concerto in D major RV123, 2 Adagio.wav

Peak level 55.7 %
Track quality 100.0 %
Test CRC 17386D8B
Copy CRC 17386D8B
Accurately ripped (confidence 11) [B270F7AA]
Copy OK

Track 9

Filename E:\david\flac\Antonio Vivaldi\The Masterworks (CD 07) - Concertos & Symphonies for Strings Vol. II\09 - Concerto in D major RV123, 3 Allegro.wav

Peak level 63.1 %
Track quality 100.0 %
Test CRC 7E9A1ECF
Copy CRC 7E9A1ECF
Accurately ripped (confidence 11) [023526A0]
Copy OK

Track 10

Filename E:\david\flac\Antonio Vivaldi\The Masterworks (CD 07) - Concertos & Symphonies for Strings Vol. II\10 - Concerto in D minor RV127, 1 Allegro.wav

Pre-gap length 0:00:06.07

Peak level 61.2 %
Track quality 100.0 %
Test CRC C16B975F
Copy CRC C16B975F
Accurately ripped (confidence 11) [A71EF1C5]
Copy OK

Track 11

Filename E:\david\flac\Antonio Vivaldi\The Masterworks (CD 07) - Concertos & Symphonies for Strings Vol. II\11 - Concerto in D minor RV127, 2 Largo.wav

Peak level 43.0 %
Track quality 99.8 %
Test CRC 03513F00
Copy CRC 03513F00
Accurately ripped (confidence 11) [14374C5A]
Copy OK

Track 12

Filename E:\david\flac\Antonio Vivaldi\The Masterworks (CD 07) - Concertos & Symphonies for Strings Vol. II\12 - Concerto in D minor RV127, 3 Allegro.wav

Peak level 54.5 %
Track quality 100.0 %
Test CRC 5E17311D
Copy CRC 5E17311D
Accurately ripped (confidence 11) [30D81D1F]
Copy OK

Track 13

Filename E:\david\flac\Antonio Vivaldi\The Masterworks (CD 07) - Concertos & Symphonies for Strings Vol. II\13 - Concerto in F major RV136, 1 Allegro.wav

Pre-gap length 0:00:05.30

Peak level 63.0 %
Track quality 100.0 %
Test CRC FDA02180
Copy CRC FDA02180
Accurately ripped (confidence 11) [46E8992A]
Copy OK

Track 14

Filename E:\david\flac\Antonio Vivaldi\The Masterworks (CD 07) - Concertos & Symphonies for Strings Vol. II\14 - Concerto in F major RV136, 2 Andante.wav

Peak level 32.2 %
Track quality 100.0 %
Test CRC B82CC687
Copy CRC B82CC687
Accurately ripped (confidence 11) [9447A38B]
Copy OK

Track 15

Filename E:\david\flac\Antonio Vivaldi\The Masterworks (CD 07) - Concertos & Symphonies for Strings Vol. II\15 - Concerto in F major RV136, 3 Minuetto, allegro.wav

Peak level 72.7 %
Track quality 100.0 %
Test CRC 23D0A252
Copy CRC 23D0A252
Accurately ripped (confidence 11) [1128EBFE]
Copy OK

Track 16

Filename E:\david\flac\Antonio Vivaldi\The Masterworks (CD 07) - Concertos & Symphonies for Strings Vol. II\16 - Concerto in F major RV142, 1 Allegro molto.wav

Pre-gap length 0:00:06.00

Peak level 86.1 %
Track quality 100.0 %
Test CRC 2D226EF2
Copy CRC 2D226EF2
Accurately ripped (confidence 11) [911084A9]
Copy OK

Track 17

Filename E:\david\flac\Antonio Vivaldi\The Masterworks (CD 07) - Concertos & Symphonies for Strings Vol. II\17 - Concerto in F major RV142, 2 Andante molto.wav

Peak level 39.7 %
Track quality 100.0 %
Test CRC 3988EBD6
Copy CRC 3988EBD6
Accurately ripped (confidence 11) [15B0FCA7]
Copy OK

Track 18

Filename E:\david\flac\Antonio Vivaldi\The Masterworks (CD 07) - Concertos & Symphonies for Strings Vol. II\18 - Concerto in F major RV142, 3 Allegro molto.wav

Peak level 74.1 %
Track quality 99.9 %
Test CRC 299E2311
Copy CRC 299E2311
Accurately ripped (confidence 11) [FDF38A1D]
Copy OK

Track 19

Filename E:\david\flac\Antonio Vivaldi\The Masterworks (CD 07) - Concertos & Symphonies for Strings Vol. II\19 - Concerto in G major RV145, 1 Allegro molto.wav

Pre-gap length 0:00:05.00

Peak level 73.0 %
Track quality 100.0 %
Test CRC 1CB12190
Copy CRC 1CB12190
Accurately ripped (confidence 11) [FA44DCD4]
Copy OK

Track 20

Filename E:\david\flac\Antonio Vivaldi\The Masterworks (CD 07) - Concertos & Symphonies for Strings Vol. II\20 - Concerto in G major RV145, 2 Andante e sempre pianissimo.wav

Peak level 30.2 %
Track quality 100.0 %
Test CRC EC253077
Copy CRC EC253077
Accurately ripped (confidence 11) [A8A4BD89]
Copy OK

Track 21

Filename E:\david\flac\Antonio Vivaldi\The Masterworks (CD 07) - Concertos & Symphonies for Strings Vol. II\21 - Concerto in G major RV145, 3 Presto.wav

Peak level 68.2 %
Track quality 100.0 %
Test CRC 744E6ADC
Copy CRC 744E6ADC
Accurately ripped (confidence 11) [3F29C9B2]
Copy OK

Track 22

Filename E:\david\flac\Antonio Vivaldi\The Masterworks (CD 07) - Concertos & Symphonies for Strings Vol. II\22 - Concerto in G minor RV156, 1 Allegro.wav

Pre-gap length 0:00:05.35

Peak level 79.6 %
Track quality 99.9 %
Test CRC 2B709D86
Copy CRC 2B709D86
Accurately ripped (confidence 11) [A3AD83C7]
Copy OK

Track 23

Filename E:\david\flac\Antonio Vivaldi\The Masterworks (CD 07) - Concertos & Symphonies for Strings Vol. II\23 - Concerto in G minor RV156, 2 Adagio.wav

Peak level 38.5 %
Track quality 99.8 %
Test CRC F5753811
Copy CRC F5753811
Accurately ripped (confidence 11) [6C5DE2E3]
Copy OK

Track 24

Filename E:\david\flac\Antonio Vivaldi\The Masterworks (CD 07) - Concertos & Symphonies for Strings Vol. II\24 - Concerto in G minor RV156, 3 Allegro.wav

Peak level 82.3 %
Track quality 100.0 %
Test CRC A49C4B5E
Copy CRC A49C4B5E
Accurately ripped (confidence 11) [9A8ADB9F]
Copy OK

Track 25

Filename E:\david\flac\Antonio Vivaldi\The Masterworks (CD 07) - Concertos & Symphonies for Strings Vol. II\25 - Concerto in A major RV159, 1 Allegro.wav

Pre-gap length 0:00:05.32

Peak level 70.2 %
Track quality 100.0 %
Test CRC 9B6D463F
Copy CRC 9B6D463F
Accurately ripped (confidence 11) [2E089D2B]
Copy OK

Track 26

Filename E:\david\flac\Antonio Vivaldi\The Masterworks (CD 07) - Concertos & Symphonies for Strings Vol. II\26 - Concerto in A major RV159, 2 Adagio.wav

Peak level 42.1 %
Track quality 100.0 %
Test CRC 8F931F90
Copy CRC 8F931F90
Accurately ripped (confidence 11) [CE3C2A8B]
Copy OK

Track 27

Filename E:\david\flac\Antonio Vivaldi\The Masterworks (CD 07) - Concertos & Symphonies for Strings Vol. II\27 - Concerto in A major RV159, 3 Allegro.wav

Peak level 72.6 %
Track quality 100.0 %
Test CRC B34F0C49
Copy CRC B34F0C49
Accurately ripped (confidence 11) [D25B7520]
Copy OK

Track 28

Filename E:\david\flac\Antonio Vivaldi\The Masterworks (CD 07) - Concertos & Symphonies for Strings Vol. II\28 - Concerto in A minor RV161, 1 Allegro.wav

Pre-gap length 0:00:06.40

Peak level 65.5 %
Track quality 100.0 %
Test CRC 7C052478
Copy CRC 7C052478
Accurately ripped (confidence 11) [C5D99A11]
Copy OK

Track 29

Filename E:\david\flac\Antonio Vivaldi\The Masterworks (CD 07) - Concertos & Symphonies for Strings Vol. II\29 - Concerto in A minor RV161, 2 Largo.wav

Peak level 49.0 %
Track quality 100.0 %
Test CRC FA7C1EE0
Copy CRC FA7C1EE0
Accurately ripped (confidence 11) [A7BFA297]
Copy OK

Track 30

Filename E:\david\flac\Antonio Vivaldi\The Masterworks (CD 07) - Concertos & Symphonies for Strings Vol. II\30 - Concerto in A minor RV161, 3 Allegro.wav

Peak level 66.1 %
Track quality 100.0 %
Test CRC 0D23A694
Copy CRC 0D23A694
Accurately ripped (confidence 11) [36A72292]
Copy OK

All tracks accurately ripped

No errors occurred

End of status report


Трекер:  [ 06-Мар-2012 14:17 ]

  

Скачать .torrent

Размер .torrent файла 192 KB


Размер: 10.51 GB
Хэш (hash) релиза: ff3ca037f78d3fdcd5a038f5f6c1261e1cfa2903

Еще никто не оставлял запись к записи скачать торрент Antonio Vivaldi - The Masterworks . Будь первым!

!Обратная связь