Скачать через торрент музыку Sviatoslav Richter - The Complete EMI Recordings Святослав Рихтер - 2008, APE бесплатно без регистрации torrent

Если у вас наблюдаются проблемы со скриншотами, переходом по ссылками, скачиванием торрентов - проблемы в блокировщике рекламы AdBlock. #хорошегоДня!


Статистика раздачи
Размер:  3.32 GB   |    Зарегистрирован:  5 лет 8 месяцев   |    .torrent скачан:  229 раз   |   
Раздают:  1  
   
Загрузка...
 
Автор Сообщение

Umakiro

avatar Umakiro


Sviatoslav Richter - The Complete EMI Recordings



Жанр: Classic
Год выпуска диска: 2008
Производитель диска: UK, EMI
Аудио кодек: APE
Тип рипа: image+.cue
Битрейт аудио: lossless
Продолжительность: 14 CD

EMI ICON 14cds 2174112
SVIATOSLAV RICHTER, piano

CD 1 [74.26]

Beethoven

Piano Sonata No.1 in F minor, Op.2 No.1
1. I Allegro
2. II Adagio
3. III Menuetto (Allegretto)
4. IV Prestissimo

Piano Sonata No.7 in D, Op.10 No.3
5. I Presto
6. II Largo e mesto
7. III Menuetto (Allegro)
8. IV Rondo (Allegro)

Piano Sonata No.17 in D minor, Op.31 No.2 'Tempest'
9. I Largo – Allegro
10.II Adagio
11.III Allegretto

12. Andante favori in F, WoO.57

Recorded: June 1976, Grange de la Besnardière, Tours [1-8];
August 1961 [9-11] & 19-20 September 1977 [12], Abbey Road Studios, London

CD 2 [76.49]

Schubert

Piano Sonata in A, D.664
1. I Allegro moderato
2. II Andante
3. III Allegro

Fantasy in C, D.760 'Wanderer' (revised Badura-Skoda)
4. I Allegro con fuoco ma non troppo
5. II Adagio
6. III Presto
7. IV Allegro

Recorded: February & April 1963, Salle Wagram, Paris

Schumann

Fantasy in C, Op.17
8. I Durchaus phantastisch und leidenschaftlich vorzutragen
9. II Mäßig – Durchaus energisch
10.III Langsam getragen – Durchweg leise und halten

Recorded: 1-3 & 5 August 1961, No.1 Studio, Abbey Road, London

CD 3 [52.05]

Schumann

1. Papillons, Op.2

Piano Sonata No.2 in G minor, Op.22
2. I Vivacissimo
3. II Andantino
4. III Scherzo
5. IV Rondo (Presto)

Faschingsswank aus Wien, Op.26
6. I Allegro
7. II Romanze
8. III Scherzino
9. IV Intermezzo
10.V Finale

Recorded live: 15 & 21 October 1962, Milan, Italy

CD 4 [68.30]

Beethoven

Violin Sonata No.5 in F, Op.24 'Spring'
1. I Allegro
2. II Adagio molto espressivo
3. III Scherzo (Allegro molto) & Trio
4. IV Rondo (Allegro ma non troppo)
with Oleg Kagaan

Recorded: 25 February – 1 March 1976, Bürgerbräukeller, Munich

Schubert

Piano Quintet in A, D.667 'Trout'
5. I Allegro vivace
6. II Andante
7. III Scherzo: Presto
8. IV Tema (Andantino) con variazioni
9. V Finale (Allegro giusto)
with Borodin Quartet, Georg Hörtnagel

Recorded: 18 June 1980, Schloss Hohenems, Austria

CD 5 [58.37]

Mozart

Violin Sonata in D, K.306
1. I Allegro con spirito
2. II Andantino cantabile
3. III Allegretto

Violin Sonata in B flat, K.378
4. I Allegro moderato
5. II Andantino sostenuto e cantabile
6. III Rondo (Allegro)

Andante & Allegretto in C, K.404/385d
7. I Andante
8. II Allegretto

Violin Sonata in B flat, K.372 'Unfinished'
9. Allegro
with Oleg Kagaan

Recorded live: 6 & 7 July 1974, Grange de la Besnardière during the Fête Musicales de Touraine

CD 6 [59.35]

Handel

Keyboard Suite No.2 in F
1. I Adagio
2. II Allegro
3. III Adagio
4. IV Fuga (Allegro)

Keyboard Suite No.3 in D minor
5. I Prélude (Presto)
6. II Fuga: Allegro
7. III Allemande (Andantino quasi Allegretto)
8. IV Courante
9. V Air (Lento non troppo)
10.VI Presto

Keyboard Suite No.5 in E
11.I Prélude (Allegro moderato)
12.II Allemande (Andantino)
13.III Courante (Allegro)
14.IV Air con variazioni (Andantino)

Keyboard Suite No.8 in F minor
15.I Prélude (Allegro)
16.II Fuga (Allegro)
17.III Allemande (Allegro moderato)
18.IV Courante (Allegro)
19.V Gigue (Presto)

Recorded live: 30 June & 1, 7-8 July 1979, Tours Festival, Château de Marcilly-sur-Maulne, France

CD 7 [50.43]

Handel

Keyboard Suite No.9 in G minor
1. I Allemande (Allegro con fuoco)
2. II Courante (Allegro vivace)
3. III Gigue (Presto)

Keyboard Suite No.12 in E minor
4. I Allemande (Andante)
5. II Sarabande (Allegro moderato)
6. III Gigue (Vivo)

Keyboard Suite No.14 in G
7. I Allemande (Allegro)
8. II Allegro
9. III Courante (Allegro vivace)
10.IV Air (Presto)
11.V Menuet (Vivace)
12.VI Gavotte (Allegro)
13.VII Gigue (Presto)

Keyboard Suite No.16 in G minor
14.I Allemande (Andantino quasi allegretto)
15.II Courante (Allegro assai)
16.III Sarabande (Andante)
17.IV Gigue (Presto)

Recorded live: 30 June & 1, 7-8 July 1979, Tours Festival, Château de Marcilly-sur-Maulne, France

CD 8 [56.28]

Brahms

15 Romanzen aus 'Die schöne Magalone', Op.33

Set 1
1. I Keinen hat es noch gereut
2. II traun! Bogen und Pfeil sind gut für den Feind
3. III Sind es Scherzen, sind es Freuden

Set 2
4. IV Liebe kam aus fernen Landen
5. V So willst du des Armen dich gnädich erbarmen?
6. VI Wie soll ich die Freude, die Wonne der tragen?

Set 3
7. VII War es dir, dem diese Lippen bebten
8. VIII Wir müssen uns trennen, geliebtes Saitenspiel
9.IX Ruhe Süssliebchen, im Schatten

Set 4
10.X Verzweiflung
11.XI Wie schnell verschwindet so Licht als Glanz
12.XII Muss es eine Trennung geben

Set 5
13.XIII Sulima
14.XIV Wie froh und frisch mein Sinn sich hebt
15.XV Treue Liebe dauert lange

with Dietrich Fischer Dieskau
Recorded: 24-25 July 1970, Bürgerbräu, Munich

CD 9 [71.32]

Mozart

Piano Concerto No.22 in E flat, K.482
1. I Allegro (cadenza: Britten)
2. II Andante
3. III Allegro (cadenza: Britten)
Recorded: 5-6 April 1979, No.1 Studio, Abbey Road, London

Beethoven

Piano Concerto No.3 in C minor, Op.37
4. I Allegro con brio
5. II Largo
6. III Rondo: Allegro – Presto
Recorded: 19-20 September 1977, No.1 Studio, Abbey Road, London

with Philharmonia Orchestra / Riccardo Muti

CD 10 [57.28]

Beethoven

Triple Concerto, in C, Op.56
1. I Allegro
2. II Largo
3. III Rondo alla Polacca

with David Oistrakh, Mstislav Rostropovich
Berliner Philharmoniker / Herbert von Karajan

Recorded: 15-17 September 1969, Jesus Christus Kirche, Berlin

Violin Sonata No.4 in A minor, Op.23
4. I Presto
5. II Andante scherzoso più allegretto
6. III Allegro molto

with Oleg Kagaan

Recorded: 25 February – 1 March 1976, Bürgerbräukeller, Munich

CD 11 [72.00]

Brahms

Piano Concerto No.2 in B flat, Op.83
1. I Allegro non troppo
2. II Allegro appassionato
3. III Andante
4. IV Allegretto grazioso

with Orchestre de Paris / Lorin Maazel

Recorded: 24-28 October 1969, Salle Wagram, Paris

Mozart

Violin Sonata in G, K.379
5. I Adagio – Allegretto
6. II Theme (Andante cantabile) and Variations I-V

with Oleg Kagaan

Recorded live: 6 & 7 July 1974, Grange de la Besnardière during the Fête Musicales de Touraine

CD 12 [69.14]

Dvorák

Piano Concerto in G minor, Op.33
1. I Allegro agitato
2. II Andante sostenuto
3. III Allegro con fuoco

with Bayerische Staatsorchester München / Carlos Kleiber

Recorded: 18-21 June 1976, Bürgerbräukeller, Munich

Bartók

Piano Concerto No.2, Sz.83
4. I Allegro
5. II Adagio
6. III Allegro molto

with Orchestre de Paris / Lorin Maazel

Recorded: October-November 1969, Salle Wagram, Paris

CD 13 [58.52]

Grieg

Piano Concerto in A minor, Op.16
1. I Allegro molto moderato
2. II Adagio
3. III Allegro moderato molto e marcato

Schumann

Piano Concerto in A minor, Op.54
4. I Allegro affetuoso – Andante espressivo – Tempo I – Cadenza – Allegro molto
5. II Intermezzo: Andantino grazioso
6. III Allegro vivace

with Orchestre National de l'Opéra de Monte-Carlo / Lovro von Matacic

Recorded: 25-30 November 1974, Palais Garnier, Monte-Carlo

CD 14 [67.21]

Prokofiev

Piano Concerto No 5 in G, Op.55
1. I Allegro con brio
2. II Moderato ben accentuato
3. III Toccata (Allegro con fuoco)
4. IV Larghetto
5. V Vivo

with London Symphony Orchestra / Lorin Maazel

Recorded: June 1970, Kingsway Hall, London

Berg

Kammerkonzert
6. I Tema schezoso con variationi
7. II Adagio
8. III Rondo ritimico con introduzione

with Oleg Kagaan
Instrumental Ensemble of the Moscow Conservatoire / Youri Nicolaievsky

Recorded: 12-13 December 1977, Théâtre de l'Athénée-Louis Jouvet, Paris (live recording)
CD 1
Exact Audio Copy V0.99 prebeta 4 from 23. January 2008

Отчёт EAC об извлечении, выполненном 8. октября 2008, 21:54

Sviatoslav Richter / EMI - Disc 01

Дисковод: HP DVD Writer 1040r Adapter: 2 ID: 0

Режим чтения : Достоверность
Использование точного потока : Да
Отключение кэша аудио : Да
Использование указателей C2 : Нет

Коррекция смещения при чтении : 6
Способность читать области Lead-in и Lead-out : Нет
Заполнение пропущенных сэмплов тишиной : Да
Удаление блоков с тишиной в начале и конце : Нет
При вычислениях CRC использовались нулевые сэмплы : Да
Интерфейс : Встроенный Win32-интерфейс для Win NT/2000

Выходной формат : Внутренние WAV-операции
Формат сэмплов : 44.100 Гц; 16 бит; стерео

TOC извлечённого CD

Трек | Старт | Длительность | Начальный сектор | Конечный сектор
---------------------------------------------------------------------
1 | 0:00.00 | 5:43.21 | 0 | 25745
2 | 5:43.21 | 4:41.38 | 25746 | 46858
3 | 10:24.59 | 4:01.32 | 46859 | 64965
4 | 14:26.16 | 6:42.10 | 64966 | 95125
5 | 21:08.26 | 7:04.44 | 95126 | 126969
6 | 28:12.70 | 8:11.12 | 126970 | 163806
7 | 36:24.07 | 3:03.55 | 163807 | 177586
8 | 39:27.62 | 4:09.10 | 177587 | 196271
9 | 43:36.72 | 9:27.14 | 196272 | 238810
10 | 53:04.11 | 7:18.08 | 238811 | 271668
11 | 60:22.19 | 7:01.14 | 271669 | 303257
12 | 67:23.33 | 7:56.26 | 303258 | 338983

Характеристики диапазона извлечения и сообщения об ошибках

Выбранный диапазон

Имя файла C:\Richter - EMI Complete\CD 01\Sviatoslav Richter - EMI - Disc 01.wav

Пиковый уровень 95.5 %
Качество диапазона 100.0 %
CRC копии 99EBC19B
Копирование... OK

Ошибок не произошло

Конец отчёта

CD 2
Exact Audio Copy V0.99 prebeta 4 from 23. January 2008

Отчёт EAC об извлечении, выполненном 8. октября 2008, 22:23

Sviatoslav Richter / EMI - Disc 02

Дисковод: HP DVD Writer 1040r Adapter: 2 ID: 0

Режим чтения : Достоверность
Использование точного потока : Да
Отключение кэша аудио : Да
Использование указателей C2 : Нет

Коррекция смещения при чтении : 6
Способность читать области Lead-in и Lead-out : Нет
Заполнение пропущенных сэмплов тишиной : Да
Удаление блоков с тишиной в начале и конце : Нет
При вычислениях CRC использовались нулевые сэмплы : Да
Интерфейс : Встроенный Win32-интерфейс для Win NT/2000

Выходной формат : Внутренние WAV-операции
Формат сэмплов : 44.100 Гц; 16 бит; стерео

TOC извлечённого CD

Трек | Старт | Длительность | Начальный сектор | Конечный сектор
---------------------------------------------------------------------
1 | 0:00.00 | 11:51.67 | 0 | 53391
2 | 11:51.67 | 6:27.74 | 53392 | 82490
3 | 18:19.66 | 6:33.49 | 82491 | 112014
4 | 24:53.40 | 5:45.61 | 112015 | 137950
5 | 30:39.26 | 6:51.09 | 137951 | 168784
6 | 37:30.35 | 4:33.57 | 168785 | 189316
7 | 42:04.17 | 3:42.09 | 189317 | 205975
8 | 45:46.26 | 13:52.59 | 205976 | 268434
9 | 59:39.10 | 6:46.66 | 268435 | 298950
10 | 66:26.01 | 11:09.04 | 298951 | 349129

Характеристики диапазона извлечения и сообщения об ошибках

Выбранный диапазон

Имя файла C:\Richter - EMI Complete\CD 02\Sviatoslav Richter - EMI - Disc 02.wav

Пиковый уровень 82.7 %
Качество диапазона 100.0 %
CRC копии DD77157C
Копирование... OK

Ошибок не произошло

Конец отчёта

CD 3
Exact Audio Copy V0.99 prebeta 4 from 23. January 2008

Отчёт EAC об извлечении, выполненном 8. октября 2008, 22:44

Sviatoslav Richter / EMI - Disc 03

Дисковод: HP DVD Writer 1040r Adapter: 2 ID: 0

Режим чтения : Достоверность
Использование точного потока : Да
Отключение кэша аудио : Да
Использование указателей C2 : Нет

Коррекция смещения при чтении : 6
Способность читать области Lead-in и Lead-out : Нет
Заполнение пропущенных сэмплов тишиной : Да
Удаление блоков с тишиной в начале и конце : Нет
При вычислениях CRC использовались нулевые сэмплы : Да
Интерфейс : Встроенный Win32-интерфейс для Win NT/2000

Выходной формат : Внутренние WAV-операции
Формат сэмплов : 44.100 Гц; 16 бит; стерео

TOC извлечённого CD

Трек | Старт | Длительность | Начальный сектор | Конечный сектор
---------------------------------------------------------------------
1 | 0:00.00 | 14:40.10 | 0 | 66009
2 | 14:40.10 | 5:32.05 | 66010 | 90914
3 | 20:12.15 | 4:58.10 | 90915 | 113274
4 | 25:10.25 | 1:47.70 | 113275 | 121369
5 | 26:58.20 | 5:30.65 | 121370 | 146184
6 | 32:29.10 | 8:17.30 | 146185 | 183489
7 | 40:46.40 | 2:44.45 | 183490 | 195834
8 | 43:31.10 | 2:08.33 | 195835 | 205467
9 | 45:39.43 | 2:06.45 | 205468 | 214962
10 | 47:46.13 | 5:21.42 | 214963 | 239079

Характеристики диапазона извлечения и сообщения об ошибках

Выбранный диапазон

Имя файла C:\Richter - EMI Complete\CD 03\Sviatoslav Richter - EMI - Disc 03.wav

Пиковый уровень 99.8 %
Качество диапазона 100.0 %
CRC копии 3F7F5694
Копирование... OK

Ошибок не произошло

Конец отчёта

CD 4
Exact Audio Copy V0.99 prebeta 4 from 23. January 2008

Отчёт EAC об извлечении, выполненном 8. октября 2008, 23:15

Sviatoslav Richter / EMI - Disc 04

Дисковод: HP DVD Writer 1040r Adapter: 2 ID: 0

Режим чтения : Достоверность
Использование точного потока : Да
Отключение кэша аудио : Да
Использование указателей C2 : Нет

Коррекция смещения при чтении : 6
Способность читать области Lead-in и Lead-out : Нет
Заполнение пропущенных сэмплов тишиной : Да
Удаление блоков с тишиной в начале и конце : Нет
При вычислениях CRC использовались нулевые сэмплы : Да
Интерфейс : Встроенный Win32-интерфейс для Win NT/2000

Выходной формат : Внутренние WAV-операции
Формат сэмплов : 44.100 Гц; 16 бит; стерео

TOC извлечённого CD

Трек | Старт | Длительность | Начальный сектор | Конечный сектор
---------------------------------------------------------------------
1 | 0:00.00 | 10:13.09 | 0 | 45983
2 | 10:13.09 | 6:43.25 | 45984 | 76233
3 | 16:56.34 | 1:09.16 | 76234 | 81424
4 | 18:05.50 | 6:44.06 | 81425 | 111730
5 | 24:49.56 | 13:29.16 | 111731 | 172421
6 | 38:18.72 | 8:28.68 | 172422 | 210589
7 | 46:47.65 | 4:27.74 | 210590 | 230688
8 | 51:15.64 | 7:38.32 | 230689 | 265070
9 | 58:54.21 | 9:58.03 | 265071 | 309923

Характеристики диапазона извлечения и сообщения об ошибках

Выбранный диапазон

Имя файла C:\Richter - EMI Complete\CD 04\Sviatoslav Richter - EMI - Disc 04.wav

Пиковый уровень 84.8 %
Качество диапазона 100.0 %
CRC копии EE3E98C4
Копирование... OK

Ошибок не произошло

Конец отчёта

CD 5
Exact Audio Copy V0.99 prebeta 4 from 23. January 2008

Отчёт EAC об извлечении, выполненном 8. октября 2008, 23:41

Sviatoslav Richter / EMI - Disc 05

Дисковод: HP DVD Writer 1040r Adapter: 2 ID: 0

Режим чтения : Достоверность
Использование точного потока : Да
Отключение кэша аудио : Да
Использование указателей C2 : Нет

Коррекция смещения при чтении : 6
Способность читать области Lead-in и Lead-out : Нет
Заполнение пропущенных сэмплов тишиной : Да
Удаление блоков с тишиной в начале и конце : Нет
При вычислениях CRC использовались нулевые сэмплы : Да
Интерфейс : Встроенный Win32-интерфейс для Win NT/2000

Выходной формат : Внутренние WAV-операции
Формат сэмплов : 44.100 Гц; 16 бит; стерео

TOC извлечённого CD

Трек | Старт | Длительность | Начальный сектор | Конечный сектор
---------------------------------------------------------------------
1 | 0:00.00 | 10:49.48 | 0 | 48722
2 | 10:49.48 | 10:43.42 | 48723 | 96989
3 | 21:33.15 | 6:54.24 | 96990 | 128063
4 | 28:27.39 | 13:11.21 | 128064 | 187409
5 | 41:38.60 | 7:31.05 | 187410 | 221239
6 | 49:09.65 | 4:18.73 | 221240 | 240662
7 | 53:28.63 | 2:21.49 | 240663 | 251286
8 | 55:50.37 | 1:35.49 | 251287 | 258460
9 | 57:26.11 | 2:11.46 | 258461 | 268331

Характеристики диапазона извлечения и сообщения об ошибках

Выбранный диапазон

Имя файла C:\Richter - EMI Complete\CD 05\Sviatoslav Richter - EMI - Disc 05.wav

Пиковый уровень 98.8 %
Качество диапазона 100.0 %
CRC копии F9744720
Копирование... OK

Ошибок не произошло

Конец отчёта

CD 6
Exact Audio Copy V0.99 prebeta 4 from 23. January 2008

Отчёт EAC об извлечении, выполненном 9. октября 2008, 21:45

Sviatoslav Richter / EMI - Disc 06

Дисковод: HP DVD Writer 1040r Adapter: 2 ID: 0

Режим чтения : Достоверность
Использование точного потока : Да
Отключение кэша аудио : Да
Использование указателей C2 : Нет

Коррекция смещения при чтении : 6
Способность читать области Lead-in и Lead-out : Нет
Заполнение пропущенных сэмплов тишиной : Да
Удаление блоков с тишиной в начале и конце : Нет
При вычислениях CRC использовались нулевые сэмплы : Да
Интерфейс : Встроенный Win32-интерфейс для Win NT/2000

Выходной формат : Внутренние WAV-операции
Формат сэмплов : 44.100 Гц; 16 бит; стерео

TOC извлечённого CD

Трек | Старт | Длительность | Начальный сектор | Конечный сектор
---------------------------------------------------------------------
1 | 0:00.00 | 3:28.63 | 0 | 15662
2 | 3:28.63 | 2:13.46 | 15663 | 25683
3 | 5:42.34 | 1:45.13 | 25684 | 33571
4 | 7:27.47 | 2:35.32 | 33572 | 45228
5 | 10:03.04 | 1:02.61 | 45229 | 49939
6 | 11:05.65 | 2:21.32 | 49940 | 60546
7 | 13:27.22 | 3:30.68 | 60547 | 76364
8 | 16:58.15 | 1:50.14 | 76365 | 84628
9 | 18:48.29 | 10:23.30 | 84629 | 131383
10 | 29:11.59 | 4:38.06 | 131384 | 152239
11 | 33:49.65 | 1:48.31 | 152240 | 160370
12 | 35:38.21 | 4:47.16 | 160371 | 181911
13 | 40:25.37 | 2:05.01 | 181912 | 191287
14 | 42:30.38 | 4:40.11 | 191288 | 212298
15 | 47:10.49 | 2:47.72 | 212299 | 224895
16 | 49:58.46 | 3:05.64 | 224896 | 238834
17 | 53:04.35 | 2:51.62 | 238835 | 251721
18 | 55:56.22 | 1:54.25 | 251722 | 260296
19 | 57:50.47 | 2:15.44 | 260297 | 270465

Характеристики диапазона извлечения и сообщения об ошибках

Выбранный диапазон

Имя файла C:\Richter - EMI Complete\CD 06\Sviatoslav Richter - EMI - Disc 06.wav

Пиковый уровень 99.8 %
Качество диапазона 99.9 %
CRC копии A2E8BD69
Копирование... OK

Ошибок не произошло

Конец отчёта

CD 7
Exact Audio Copy V0.99 prebeta 4 from 23. January 2008

Отчёт EAC об извлечении, выполненном 9. октября 2008, 22:11

Sviatoslav Richter / EMI - Disc 07

Дисковод: HP DVD Writer 1040r Adapter: 2 ID: 0

Режим чтения : Достоверность
Использование точного потока : Да
Отключение кэша аудио : Да
Использование указателей C2 : Нет

Коррекция смещения при чтении : 6
Способность читать области Lead-in и Lead-out : Нет
Заполнение пропущенных сэмплов тишиной : Да
Удаление блоков с тишиной в начале и конце : Нет
При вычислениях CRC использовались нулевые сэмплы : Да
Интерфейс : Встроенный Win32-интерфейс для Win NT/2000

Выходной формат : Внутренние WAV-операции
Формат сэмплов : 44.100 Гц; 16 бит; стерео

TOC извлечённого CD

Трек | Старт | Длительность | Начальный сектор | Конечный сектор
---------------------------------------------------------------------
1 | 0:00.00 | 5:16.54 | 0 | 23753
2 | 5:16.54 | 3:53.33 | 23754 | 41261
3 | 9:10.12 | 4:36.63 | 41262 | 62024
4 | 13:47.00 | 3:10.38 | 62025 | 76312
5 | 16:57.38 | 3:04.71 | 76313 | 90183
6 | 20:02.34 | 3:11.68 | 90184 | 104576
7 | 23:14.27 | 2:00.43 | 104577 | 113619
8 | 25:14.70 | 2:38.67 | 113620 | 125536
9 | 27:53.62 | 2:58.27 | 125537 | 138913
10 | 30:52.14 | 1:31.36 | 138914 | 145774
11 | 32:23.50 | 2:19.34 | 145775 | 156233
12 | 34:43.09 | 4:46.55 | 156234 | 177738
13 | 39:29.64 | 2:25.45 | 177739 | 188658
14 | 41:55.34 | 2:35.13 | 188659 | 200296
15 | 44:30.47 | 2:05.06 | 200297 | 209677
16 | 46:35.53 | 3:32.44 | 209678 | 225621
17 | 50:08.22 | 1:05.32 | 225622 | 230528

Характеристики диапазона извлечения и сообщения об ошибках

Выбранный диапазон

Имя файла C:\Richter - EMI Complete\CD 07\Sviatoslav Richter - EMI - Disc 07.wav

Пиковый уровень 99.7 %
Качество диапазона 100.0 %
CRC копии 36EF02DC
Копирование... OK

Ошибок не произошло

Конец отчёта

CD 8
Exact Audio Copy V0.99 prebeta 4 from 23. January 2008

Отчёт EAC об извлечении, выполненном 9. октября 2008, 22:35

Sviatoslav Richter / EMI - Disc 08

Дисковод: HP DVD Writer 1040r Adapter: 2 ID: 0

Режим чтения : Достоверность
Использование точного потока : Да
Отключение кэша аудио : Да
Использование указателей C2 : Нет

Коррекция смещения при чтении : 6
Способность читать области Lead-in и Lead-out : Нет
Заполнение пропущенных сэмплов тишиной : Да
Удаление блоков с тишиной в начале и конце : Нет
При вычислениях CRC использовались нулевые сэмплы : Да
Интерфейс : Встроенный Win32-интерфейс для Win NT/2000

Выходной формат : Внутренние WAV-операции
Формат сэмплов : 44.100 Гц; 16 бит; стерео

TOC извлечённого CD

Трек | Старт | Длительность | Начальный сектор | Конечный сектор
---------------------------------------------------------------------
1 | 0:00.00 | 4:00.28 | 0 | 18027
2 | 4:00.28 | 1:37.62 | 18028 | 25364
3 | 5:38.15 | 5:32.10 | 25365 | 50274
4 | 11:10.25 | 4:46.63 | 50275 | 71787
5 | 15:57.13 | 1:34.72 | 71788 | 78909
6 | 17:32.10 | 6:12.28 | 78910 | 106837
7 | 23:44.38 | 2:54.37 | 106838 | 119924
8 | 26:39.00 | 4:22.28 | 119925 | 139602
9 | 31:01.28 | 5:55.10 | 139603 | 166237
10 | 36:56.38 | 2:40.18 | 166238 | 178255
11 | 39:36.56 | 4:25.14 | 178256 | 198144
12 | 44:01.70 | 3:24.40 | 198145 | 213484
13 | 47:26.35 | 1:57.20 | 213485 | 222279
14 | 49:23.55 | 2:36.68 | 222280 | 234047
15 | 52:00.48 | 5:06.57 | 234048 | 257054

Характеристики диапазона извлечения и сообщения об ошибках

Выбранный диапазон

Имя файла C:\Richter - EMI Complete\CD 08\Sviatoslav Richter - EMI - Disc 08.wav

Пиковый уровень 82.9 %
Качество диапазона 100.0 %
CRC копии 6D4DA2B1
Копирование... OK

Ошибок не произошло

Конец отчёта

CD 9
Exact Audio Copy V0.99 prebeta 4 from 23. January 2008

Отчёт EAC об извлечении, выполненном 9. октября 2008, 23:05

Sviatoslav Richter / EMI - Disc 09

Дисковод: HP DVD Writer 1040r Adapter: 2 ID: 0

Режим чтения : Достоверность
Использование точного потока : Да
Отключение кэша аудио : Да
Использование указателей C2 : Нет

Коррекция смещения при чтении : 6
Способность читать области Lead-in и Lead-out : Нет
Заполнение пропущенных сэмплов тишиной : Да
Удаление блоков с тишиной в начале и конце : Нет
При вычислениях CRC использовались нулевые сэмплы : Да
Интерфейс : Встроенный Win32-интерфейс для Win NT/2000

Выходной формат : Внутренние WAV-операции
Формат сэмплов : 44.100 Гц; 16 бит; стерео

TOC извлечённого CD

Трек | Старт | Длительность | Начальный сектор | Конечный сектор
---------------------------------------------------------------------
1 | 0:00.32 | 14:33.48 | 32 | 65554
2 | 14:34.05 | 7:50.07 | 65555 | 100811
3 | 22:24.12 | 12:19.73 | 100812 | 156309
4 | 34:44.10 | 17:59.27 | 156310 | 237261
5 | 52:43.37 | 9:50.48 | 237262 | 281559
6 | 62:34.10 | 9:28.20 | 281560 | 324179

Характеристики диапазона извлечения и сообщения об ошибках

Выбранный диапазон

Имя файла C:\Richter - EMI Complete\CD 09\Sviatoslav Richter - EMI - Disc 09.wav

Пиковый уровень 93.2 %
Качество диапазона 100.0 %
CRC копии 3BD552C4
Копирование... OK

Ошибок не произошло

Конец отчёта

CD 10
Exact Audio Copy V0.99 prebeta 4 from 23. January 2008

Отчёт EAC об извлечении, выполненном 10. октября 2008, 22:33

Sviatoslav Richter / EMI - Disc 10

Дисковод: HP DVD Writer 1040r Adapter: 2 ID: 0

Режим чтения : Достоверность
Использование точного потока : Да
Отключение кэша аудио : Да
Использование указателей C2 : Нет

Коррекция смещения при чтении : 6
Способность читать области Lead-in и Lead-out : Нет
Заполнение пропущенных сэмплов тишиной : Да
Удаление блоков с тишиной в начале и конце : Нет
При вычислениях CRC использовались нулевые сэмплы : Да
Интерфейс : Встроенный Win32-интерфейс для Win NT/2000

Выходной формат : Внутренние WAV-операции
Формат сэмплов : 44.100 Гц; 16 бит; стерео

TOC извлечённого CD

Трек | Старт | Длительность | Начальный сектор | Конечный сектор
---------------------------------------------------------------------
1 | 0:00.00 | 17:58.10 | 0 | 80859
2 | 17:58.10 | 5:36.18 | 80860 | 106077
3 | 23:34.28 | 13:03.73 | 106078 | 164875
4 | 36:38.26 | 6:47.62 | 164876 | 195462
5 | 43:26.13 | 7:57.24 | 195463 | 231261
6 | 51:23.37 | 6:13.59 | 231262 | 259295

Характеристики диапазона извлечения и сообщения об ошибках

Выбранный диапазон

Имя файла C:\Richter - EMI Complete\CD 10\Sviatoslav Richter - EMI - Disc 10.wav

Пиковый уровень 98.8 %
Качество диапазона 100.0 %
CRC копии 5BB13AEC
Копирование... OK

Ошибок не произошло

Конец отчёта

CD 11
Exact Audio Copy V0.99 prebeta 4 from 23. January 2008

Отчёт EAC об извлечении, выполненном 10. октября 2008, 23:01

Sviatoslav Richter / EMI - Disc 11

Дисковод: HP DVD Writer 1040r Adapter: 2 ID: 0

Режим чтения : Достоверность
Использование точного потока : Да
Отключение кэша аудио : Да
Использование указателей C2 : Нет

Коррекция смещения при чтении : 6
Способность читать области Lead-in и Lead-out : Нет
Заполнение пропущенных сэмплов тишиной : Да
Удаление блоков с тишиной в начале и конце : Нет
При вычислениях CRC использовались нулевые сэмплы : Да
Интерфейс : Встроенный Win32-интерфейс для Win NT/2000

Выходной формат : Внутренние WAV-операции
Формат сэмплов : 44.100 Гц; 16 бит; стерео

TOC извлечённого CD

Трек | Старт | Длительность | Начальный сектор | Конечный сектор
---------------------------------------------------------------------
1 | 0:00.00 | 17:33.22 | 0 | 78996
2 | 17:33.22 | 9:24.49 | 78997 | 121345
3 | 26:57.71 | 12:31.37 | 121346 | 177707
4 | 39:29.33 | 9:51.13 | 177708 | 222045
5 | 49:20.46 | 12:29.19 | 222046 | 278239
6 | 61:49.65 | 10:02.49 | 278240 | 323438

Характеристики диапазона извлечения и сообщения об ошибках

Выбранный диапазон

Имя файла C:\Richter - EMI Complete\CD 11\Sviatoslav Richter - EMI - Disc 11.wav

Пиковый уровень 99.9 %
Качество диапазона 99.9 %
CRC копии 25E76C6D
Копирование... OK

Ошибок не произошло

Конец отчёта

CD 12
Exact Audio Copy V0.99 prebeta 4 from 23. January 2008

Отчёт EAC об извлечении, выполненном 10. октября 2008, 23:33

Sviatoslav Richter / EMI - Disc 12

Дисковод: HP DVD Writer 1040r Adapter: 2 ID: 0

Режим чтения : Достоверность
Использование точного потока : Да
Отключение кэша аудио : Да
Использование указателей C2 : Нет

Коррекция смещения при чтении : 6
Способность читать области Lead-in и Lead-out : Нет
Заполнение пропущенных сэмплов тишиной : Да
Удаление блоков с тишиной в начале и конце : Нет
При вычислениях CRC использовались нулевые сэмплы : Да
Интерфейс : Встроенный Win32-интерфейс для Win NT/2000

Выходной формат : Внутренние WAV-операции
Формат сэмплов : 44.100 Гц; 16 бит; стерео

TOC извлечённого CD

Трек | Старт | Длительность | Начальный сектор | Конечный сектор
---------------------------------------------------------------------
1 | 0:00.00 | 18:33.52 | 0 | 83526
2 | 18:33.52 | 8:53.60 | 83527 | 123561
3 | 27:27.37 | 11:13.69 | 123562 | 174105
4 | 38:41.31 | 10:03.65 | 174106 | 219395
5 | 48:45.21 | 14:07.54 | 219396 | 282974
6 | 62:53.00 | 6:31.18 | 282975 | 312317

Характеристики диапазона извлечения и сообщения об ошибках

Выбранный диапазон

Имя файла C:\Richter - EMI Complete\CD 12\Sviatoslav Richter - EMI - Disc 12.wav

Пиковый уровень 96.7 %
Качество диапазона 100.0 %
CRC копии 56F42BE9
Копирование... OK

Ошибок не произошло

Конец отчёта

CD 13
Exact Audio Copy V0.99 prebeta 4 from 23. January 2008

Отчёт EAC об извлечении, выполненном 11. октября 2008, 0:01

Sviatoslav Richter / EMI - Disc 13

Дисковод: HP DVD Writer 1040r Adapter: 2 ID: 0

Режим чтения : Достоверность
Использование точного потока : Да
Отключение кэша аудио : Да
Использование указателей C2 : Нет

Коррекция смещения при чтении : 6
Способность читать области Lead-in и Lead-out : Нет
Заполнение пропущенных сэмплов тишиной : Да
Удаление блоков с тишиной в начале и конце : Нет
При вычислениях CRC использовались нулевые сэмплы : Да
Интерфейс : Встроенный Win32-интерфейс для Win NT/2000

Выходной формат : Внутренние WAV-операции
Формат сэмплов : 44.100 Гц; 16 бит; стерео

TOC извлечённого CD

Трек | Старт | Длительность | Начальный сектор | Конечный сектор
---------------------------------------------------------------------
1 | 0:00.00 | 12:41.51 | 0 | 57125
2 | 12:41.51 | 6:10.28 | 57126 | 84903
3 | 18:52.04 | 9:58.53 | 84904 | 129806
4 | 28:50.57 | 14:40.69 | 129807 | 195875
5 | 43:31.51 | 5:06.44 | 195876 | 218869
6 | 48:38.20 | 10:23.60 | 218870 | 265654

Характеристики диапазона извлечения и сообщения об ошибках

Выбранный диапазон

Имя файла C:\Richter - EMI Complete\CD 13\Sviatoslav Richter - EMI - Disc 13.wav

Пиковый уровень 95.7 %
Качество диапазона 100.0 %
CRC копии 3BC00ABC
Копирование... OK

Ошибок не произошло

Конец отчёта

CD 14
Exact Audio Copy V0.99 prebeta 4 from 23. January 2008

Отчёт EAC об извлечении, выполненном 11. октября 2008, 2:54

Sviatoslav Richter / EMI - Disc 14

Дисковод: HP DVD Writer 1040r Adapter: 2 ID: 0

Режим чтения : Достоверность
Использование точного потока : Да
Отключение кэша аудио : Да
Использование указателей C2 : Нет

Коррекция смещения при чтении : 6
Способность читать области Lead-in и Lead-out : Нет
Заполнение пропущенных сэмплов тишиной : Да
Удаление блоков с тишиной в начале и конце : Нет
При вычислениях CRC использовались нулевые сэмплы : Да
Интерфейс : Встроенный Win32-интерфейс для Win NT/2000

Выходной формат : Внутренние WAV-операции
Формат сэмплов : 44.100 Гц; 16 бит; стерео

TOC извлечённого CD

Трек | Старт | Длительность | Начальный сектор | Конечный сектор
---------------------------------------------------------------------
1 | 0:00.33 | 5:32.70 | 33 | 25002
2 | 5:33.28 | 4:42.67 | 25003 | 46219
3 | 10:16.20 | 1:58.40 | 46220 | 55109
4 | 12:14.60 | 7:16.40 | 55110 | 87849
5 | 19:31.25 | 5:25.58 | 87850 | 112282
6 | 24:57.08 | 9:45.47 | 112283 | 156204
7 | 34:42.55 | 15:05.20 | 156205 | 224099
8 | 49:48.00 | 17:59.18 | 224100 | 305042

Характеристики диапазона извлечения и сообщения об ошибках

Выбранный диапазон

Имя файла C:\Richter - EMI Complete\CD 14\Sviatoslav Richter - EMI - Disc 14.wav

Пиковый уровень 96.2 %
Качество диапазона 100.0 %
CRC копии C0491844
Копирование... OK

Ошибок не произошло

Конец отчёта


Трекер:  [ 06-Мар-2012 14:13 ]

  

Скачать .torrent

Размер .torrent файла 185 KB


Размер: 3.32 GB
Хэш (hash) релиза: fa36c9ee2e825b304d5b61bf4b83ee7a1f8f0205

Еще никто не оставлял запись к записи скачать торрент Sviatoslav Richter - The Complete EMI Recordings Святослав Рихтер - 2008, APE . Будь первым!

!Обратная связь