Скачать через торрент музыку VA - Sounds And Silence, Music For The Film бесплатно без регистрации torrent

Если у вас наблюдаются проблемы со скриншотами, переходом по ссылками, скачиванием торрентов - проблемы в блокировщике рекламы AdBlock. #хорошегоДня!


Статистика раздачи
Размер:  374 MB   |    Зарегистрирован:  5 лет 7 месяцев   |    .torrent скачан:  74 раза   |   
Раздают:  1  
   
Загрузка...
 
Автор Сообщение

Umakiro

avatar Umakiro


Music For The Film
Sounds And Silence
Жанр: ecm, tango, world, chamber, classical, avant-garde
Год издания диска: 2011
Издатель (лейбл): ecm
Номер по каталогу: 2250
Аудиокодек: FLAC (*.flac)
Тип рипа: tracks
Битрейт аудио: lossless
Продолжительность: 01:15:37
Источник (релизер): большое спасибо jlgt
Наличие сканов в содержимом раздачи: да
Треклист:
01. Keith Jarrett / Reading Of Sacred Books
02. Tallinn Chamber Orchestra, Tonu Kaljuste / Fur Lennart In Memoriam
03. Rolf Lislevand / Arpeggiata addio
04. Nik Bartsch's Ronin / Modul 42
05. Anouar Brahem / Sur Le Fleuve
06. Marilyn Mazur, Jan Garbarek / Creature Walk
07. Dino Saluzzi, Anja Lechner / Tango A Mi Padre
08. Eleni Karaindrou, Megaron Orchestra, Camerata, Friends Of Music Orchestra, Alexandros Myrat / Farewell Theme
09. Eleni Karaindrou, Megaron Orchestra, Camerata, Friends Of Music Orchestra, Alexandros Myrat / To Vals Tou Gamou
10. Dino Saluzzi, Anja Lechner / Ojos Negros
11. Gianluigi Trovesi, Filarmonica Mousike, Orchestra di Fiati e Percussioni, Savino Acquaviva / Cosi, Tosca
12. Keith Jarrett / Reading Of Sacred Books
13. Estonian Philharmonic Chamber Choir, Tallinn Chamber Orchestra, Tonu Kaljuste / Da Pacem Domine
Georges I. Gurdjieff - Reading of Sacred Books
Keith Jarrett: piano

Arvo Pärt - Für Lennart in memoriam
Tallinn Chamber Orchestra
Tõnu Kaljuste: conductor

Giovanni G. Kapsberger - Arpeggiata addio
Rolf Lislevand: archlute, baroque guitar
Arianna Savall: voice
Pedro Estevan: percussion
Thor-Harald Johnsen: chitarra battente

Nik Bärtsch - Modul 42
Nik Bärtsch: piano
Sha bass: clarinet
Björn Meyer: bass
Kaspar Rust: drums
Andi Pupato: percussion

Anouar Brahem - Sur Le Fleuve
Anouar Brahem: oud
François Couturier: piano
Jean-Louis Matinier: accordion

Marilyn Mazur - Creature Walk
Marilyn Mazur: Percussion

Dino Saluzzi - Tango a mi padre
Dino Saluzzi: bandoneon
Anja Lechner: violoncello

Eleni Karaindrou - Farewell Theme
To Vals Tou Gamou
Jan Garbarek: tenor saxophone
Kim Kashkashian: viola
Eleni Karaindrou: piano
Camerata Orchestra
Alexandros Myrat: conductor

Vicente Greco - Ojos Negros
Dino Saluzzi: bandoneon
Anja Lechner: violoncello

Giacomo Puccini (arr. Natale Arnoldi) - Così, Tosca
Gianluigi Trovesi: alto clarinet
Filarmonica Mousiké
Savino Acquaviva: conductor

Arvo Pärt - Da Pacem Domine
Estonian Philharmonic Chamber Choir
Tallinn Chamber Orchestra
Tõnu Kaljuste: conductor
  
Exact Audio Copy V1.0 beta 2 from 29. April 2011

EAC extraction logfile from 7. January 2012, 18:50

Various / Sounds And Silence - Music For The Film

Used drive : PLEXTOR DVDR PX-810SA Adapter: 2 ID: 0

Read mode : SecureUtilize accurate stream : YesDefeat audio cache : YesMake use of C2 pointers : No

Read offset correction : 48Overread into Lead-In and Lead-Out : NoFill up missing offset samples with silence : YesDelete leading and trailing silent blocks : NoNull samples used in CRC calculations : YesUsed interface : Native Win32 interface for Win NT & 2000Gap handling : Appended to previous track

Used output format : User Defined EncoderSelected bitrate : 256 kBit/sQuality : HighAdd ID3 tag : NoCommand line compressor : C:\Archivos de programa\Exact Audio Copy\Flac\flac.exeAdditional command line options : -8 -V -T "ARTIST=%artist%" -T "TITLE=%title%" -T "ALBUM=%albumtitle%" -T "DATE=%year%" -T "TRACKNUMBER=%tracknr%" -T "TOTALTRACKS=%numtracks%" -T "GENRE=%genre%" -T "ALBUMARTIST=%albumartist%" -T "ALBUM ARTIST=%albumartist%

TOC of the extracted CD

Track | Start | Length | Start sector | End sector --------------------------------------------------------- 1 | 0:00.00 | 8:25.07 | 0 | 37881 2 | 8:25.07 | 7:10.69 | 37882 | 70200 3 | 15:36.01 | 7:17.20 | 70201 | 102995 4 | 22:53.21 | 6:27.47 | 102996 | 132067 5 | 29:20.68 | 6:30.66 | 132068 | 161383 6 | 35:51.59 | 2:35.28 | 161384 | 173036 7 | 38:27.12 | 4:15.40 | 173037 | 192201 8 | 42:42.52 | 1:48.58 | 192202 | 200359 9 | 44:31.35 | 3:20.69 | 200360 | 215428 10 | 47:52.29 | 5:53.42 | 215429 | 241945 11 | 53:45.71 | 8:52.20 | 241946 | 281865 12 | 62:38.16 | 8:21.23 | 281866 | 319463 13 | 70:59.39 | 4:57.28 | 319464 | 341766

Track 1

Filename C:\audio-rips\01 - Keith Jarrett - Reading Of Sacred Books.wav

Pre-gap length 0:00:02.00

Peak level 62.7 % Extraction speed 5.4 X Track quality 100.0 % Test CRC DE9D6A16 Copy CRC DE9D6A16 Accurately ripped (confidence 1) [8F3A2E51] (AR v2) Copy OK

Track 2

Filename C:\audio-rips\02 - Tallinn Chamber Orchestra, Tonu Kaljuste - Fur Lennart In Memoriam.wav

Pre-gap length 0:00:03.20

Peak level 37.0 % Extraction speed 5.7 X Track quality 99.9 % Test CRC 06AAB80B Copy CRC 06AAB80B Cannot be verified as accurate (confidence 1) [FB70CDA7], AccurateRip returned [CC94FD28] (AR v2) Copy OK

Track 3

Filename C:\audio-rips\03 - Rolf Lislevand - Arpeggiata addio.wav

Pre-gap length 0:00:01.52

Peak level 80.0 % Extraction speed 6.3 X Track quality 99.9 % Test CRC A868930A Copy CRC A868930A Accurately ripped (confidence 1) [675FC928] (AR v2) Copy OK

Track 4

Filename C:\audio-rips\04 - Nik Bartsch's Ronin - Modul 42.wav

Pre-gap length 0:00:01.04

Peak level 72.0 % Extraction speed 7.3 X Track quality 100.0 % Test CRC 7E2AE8FA Copy CRC 7E2AE8FA Accurately ripped (confidence 1) [DC68BAA9] (AR v2) Copy OK

Track 5

Filename C:\audio-rips\05 - Anouar Brahem - Sur Le Fleuve.wav

Pre-gap length 0:00:03.57

Peak level 56.3 % Extraction speed 7.7 X Track quality 100.0 % Test CRC 7E881923 Copy CRC 7E881923 Accurately ripped (confidence 1) [EA3557B6] (AR v2) Copy OK

Track 6

Filename C:\audio-rips\06 - Marilyn Mazur, Jan Garbarek - Creature Walk.wav

Pre-gap length 0:00:01.42

Peak level 74.8 % Extraction speed 5.9 X Track quality 99.9 % Test CRC 7289DA1A Copy CRC 7289DA1A Accurately ripped (confidence 1) [689DB5EE] (AR v2) Copy OK

Track 7

Filename C:\audio-rips\07 - Dino Saluzzi, Anja Lechner - Tango A Mi Padre.wav

Pre-gap length 0:00:01.04

Peak level 63.4 % Extraction speed 7.9 X Track quality 100.0 % Test CRC 6E362C5A Copy CRC 6E362C5A Accurately ripped (confidence 1) [0ED21327] (AR v2) Copy OK

Track 8

Filename C:\audio-rips\08 - Eleni Karaindrou, Megaron Orchestra, Camerata, Friends Of Music Orchestra, Alexandros Myrat - Farewell Theme.wav

Peak level 58.3 % Extraction speed 6.7 X Track quality 100.0 % Test CRC 07CE8207 Copy CRC 07CE8207 Accurately ripped (confidence 1) [B7121D87] (AR v2) Copy OK

Track 9

Filename C:\audio-rips\09 - Eleni Karaindrou, Megaron Orchestra, Camerata, Friends Of Music Orchestra, Alexandros Myrat - To Vals Tou Gamou.wav

Pre-gap length 0:00:03.46

Peak level 52.8 % Extraction speed 7.9 X Track quality 100.0 % Test CRC 746CA0BA Copy CRC 746CA0BA Accurately ripped (confidence 1) [BFC90C8B] (AR v2) Copy OK

Track 10

Filename C:\audio-rips\10 - Dino Saluzzi, Anja Lechner - Ojos Negros.wav

Pre-gap length 0:00:02.18

Peak level 96.5 % Extraction speed 8.1 X Track quality 99.9 % Test CRC 72005384 Copy CRC 72005384 Accurately ripped (confidence 1) [C2C86EBD] (AR v2) Copy OK

Track 11

Filename C:\audio-rips\11 - Gianluigi Trovesi, Filarmonica Mousike, Orchestra di Fiati e Percussioni, Savino Acquaviva - Cosi, Tosca.wav

Peak level 97.8 % Extraction speed 9.5 X Track quality 100.0 % Test CRC 967CE611 Copy CRC 967CE611 Accurately ripped (confidence 1) [79E7B36F] (AR v2) Copy OK

Track 12

Filename C:\audio-rips\12 - Keith Jarrett - Reading Of Sacred Books.wav

Peak level 55.9 % Extraction speed 9.3 X Track quality 99.9 % Test CRC 26767D1D Copy CRC 26767D1D Accurately ripped (confidence 1) [8045A3A1] (AR v2) Copy OK

Track 13

Filename C:\audio-rips\13 - Estonian Philharmonic Chamber Choir, Tallinn Chamber Orchestra, Tonu Kaljuste - Da Pacem Domine.wav

Pre-gap length 0:00:01.08

Peak level 63.5 % Extraction speed 9.7 X Track quality 100.0 % Test CRC 022E8E62 Copy CRC 022E8E62 Accurately ripped (confidence 1) [8604E286] (AR v2) Copy OK

12 track(s) accurately ripped 1 track(s) could not be verified as accurate

Some tracks could not be verified as accurate

No errors occurred

End of status report

==== Log checksum 4A226D15BF2EA72B827960CBB84C6F7091133A9DFB8A4A2A442B4555851D3171 ====
  
REM GENRE CrossoverREM DATE 2011REM DISCID BE11CC0DREM COMMENT "ExactAudioCopy v1.0b2"PERFORMER "Various"TITLE "Sounds And Silence - Music For The Film"FILE "01 - Keith Jarrett - Reading Of Sacred Books.wav" WAVE TRACK 01 AUDIO TITLE "Reading Of Sacred Books" PERFORMER "Keith Jarrett" INDEX 01 00:00:00 TRACK 02 AUDIO TITLE "Fur Lennart In Memoriam" PERFORMER "Tallinn Chamber Orchestra, Tonu Kaljuste" INDEX 00 08:21:62FILE "02 - Tallinn Chamber Orchestra, Tonu Kaljuste - Fur Lennart In Memoriam.wav" WAVE INDEX 01 00:00:00 TRACK 03 AUDIO TITLE "Arpeggiata addio" PERFORMER "Rolf Lislevand" INDEX 00 07:09:17FILE "03 - Rolf Lislevand - Arpeggiata addio.wav" WAVE INDEX 01 00:00:00 TRACK 04 AUDIO TITLE "Modul 42" PERFORMER "Nik Bartsch's Ronin" INDEX 00 07:16:16FILE "04 - Nik Bartsch's Ronin - Modul 42.wav" WAVE INDEX 01 00:00:00 TRACK 05 AUDIO TITLE "Sur Le Fleuve" PERFORMER "Anouar Brahem" INDEX 00 06:23:65FILE "05 - Anouar Brahem - Sur Le Fleuve.wav" WAVE INDEX 01 00:00:00 TRACK 06 AUDIO TITLE "Creature Walk" PERFORMER "Marilyn Mazur, Jan Garbarek" INDEX 00 06:29:24FILE "06 - Marilyn Mazur, Jan Garbarek - Creature Walk.wav" WAVE INDEX 01 00:00:00 TRACK 07 AUDIO TITLE "Tango A Mi Padre" PERFORMER "Dino Saluzzi, Anja Lechner" INDEX 00 02:34:24FILE "07 - Dino Saluzzi, Anja Lechner - Tango A Mi Padre.wav" WAVE INDEX 01 00:00:00FILE "08 - Eleni Karaindrou, Megaron Orchestra, Camerata, Friends Of Music Orchestra, Alexandros Myrat - Farewell Theme.wav" WAVE TRACK 08 AUDIO TITLE "Farewell Theme" PERFORMER "Eleni Karaindrou, Megaron Orchestra, Camerata, Friends Of Music Orchestra, Al..." INDEX 01 00:00:00 TRACK 09 AUDIO TITLE "To Vals Tou Gamou" PERFORMER "Eleni Karaindrou, Megaron Orchestra, Camerata, Friends Of Music Orchestra, Al..." INDEX 00 01:45:12FILE "09 - Eleni Karaindrou, Megaron Orchestra, Camerata, Friends Of Music Orchestra, Alexandros Myrat - To Vals Tou Gamou.wav" WAVE INDEX 01 00:00:00 TRACK 10 AUDIO TITLE "Ojos Negros" PERFORMER "Dino Saluzzi, Anja Lechner" INDEX 00 03:18:51FILE "10 - Dino Saluzzi, Anja Lechner - Ojos Negros.wav" WAVE INDEX 01 00:00:00FILE "11 - Gianluigi Trovesi, Filarmonica Mousike, Orchestra di Fiati e Percussioni, Savino Acquaviva - Cosi, Tosca.wav" WAVE TRACK 11 AUDIO TITLE "Cosi, Tosca" PERFORMER "Gianluigi Trovesi, Filarmonica Mousike, Orchestra di Fiati e Percussioni, Sav..." INDEX 01 00:00:00FILE "12 - Keith Jarrett - Reading Of Sacred Books.wav" WAVE TRACK 12 AUDIO TITLE "Reading Of Sacred Books" PERFORMER "Keith Jarrett" INDEX 01 00:00:00 TRACK 13 AUDIO TITLE "Da Pacem Domine" PERFORMER "Estonian Philharmonic Chamber Choir, Tallinn Chamber Orchestra, Tonu Kaljuste" INDEX 00 08:20:15FILE "13 - Estonian Philharmonic Chamber Choir, Tallinn Chamber Orchestra, Tonu Kaljuste - Da Pacem Domine.wav" WAVE INDEX 01 00:00:00
Over a period of five years, Swiss directors Norbert Wiedmer and Peter Guyer documented the activity of legendary producer Manfred Eicher, the founder and driving force behind ECM Records, whose advocacy of progressive jazz and of classical composers like Arvo Pärt, Meredith Monk, Valentin Silvestrov, and György Kurtág changed the landscape of contemporary music in the late 20th and early 21st centuries. The film Sounds and Silence: Travels with Manfred Eicher was released in 2009 and this 2011 soundtrack album is made up largely of tracks taken from previously released ECM albums that Eicher produced, some from as early as 1980. Most of the pieces are low-key and understated and feature chamber ensembles, although there are several piano tracks and several featuring orchestra or chorus. The album has a mix of selections from ECM's classical and jazz repertoire, and from the label's specialty, the many pieces that lie somewhere in between the two. The artists include pianist Keith Jarrett, saxophonists Jan Garbarek and Gianluigi Trovesi, violist Kim Kashkashian, the duo of bandoneon player Dino Saluzzi and cellist Anja Lechner, and the Estonian Philharmonic Chamber Choir led by Tonu Kaljuste. The album offers a good sampling of ECM's offerings (although it steers clear of the more avant-garde music) and should whet listeners' appetites for seeking out the releases from which these tracks were taken.
~ Stephen Eddins @ allmusic.com


Трекер:  [ 06-Мар-2012 14:11 ]

  

Скачать .torrent

Размер .torrent файла 17 KB


Размер: 374 MB
Хэш (hash) релиза: f516f554ec9b161fa03630dbc27f122f6d865975

Еще никто не оставлял запись к записи скачать торрент VA - Sounds And Silence, Music For The Film . Будь первым!

!Обратная связь