Скачать через торрент Камень Фильм бесплатно в хорошем качестве torrent

Скачивайте на UnionPeer.org фильмы через торрент без регистрации. Новинки кино в хорошем качестве через торрент. На UnionPeer.org можно скачать через торрент фильмы 2014 и 2015 годов. Самые новые фильмы.

Скачать торрент Камень бесплатно через .torrent фильм мультфильм сериал

Если у вас наблюдаются проблемы со скриншотами, переходом по ссылками, скачиванием торрентов - проблемы в блокировщике рекламы AdBlock. #хорошегоДня!


Статистика раздачи
Размер:  464 MB   |    Зарегистрирован:  5 лет 5 месяцев   |    .torrent скачан:  57 раз   |   
Раздают:  1  
   
Загрузка...
 
Автор Сообщение

L


«Камень»

Год выпуска: 2011 г.
Страна: Россия
Жанр: триллер, драма
Продолжительность: 01:24:49
Режиссер: Вячеслав Каминский
В ролях: Сергей Светлаков, Николай Козак, Олеся Судзиловская, Александр Колесников, Валда Бичкуте, Елена Коренева, Сергей Насибов, Вячеслав Хархота, Семен Оконочников, Роман Володькин

Описание:
Российский кинофильм, в котором режиссёр старается рассказать историю о чувстве жизни и чувстве смерти, а Сергей Светлаков предстаёт далеко за пределами своего комедийного персонажа. Возрастной рейтинг — очевидных «16+». Не смотрите с детьми, не посмотрев без них.

Личное впечатление о фильме неоднозначное, поэтому предлагаю вам сформировать собственное.

Доп. информация:
Во время просмотра на самой PSP на быстрых сценах видео довольно ощутимо «ghost-ит». Я видел скрипты, позволяющие с помощью фильтров нивелировать этот эффект, но не стал их применять, не зная предмет. Любители таких вещей справятся сами, битрейт достаточен.
Анкод для psp, достаточно «тяжёлые» настройки кодирования.

Качество видео: HDRip
Формат: MP4
Видео кодек: x264
Аудио кодек: AAC
Видео: x264, 480x208, 25 fps, ~634 kbps
Аудио: aac-lc, 128 Kbps, 48.0 KHz, 2ch
General
Complete name : F:\movies\!psp\kamen-psp.mp4
Format : MPEG-4
Format profile : Sony PSP
Codec ID : MSNV
File size : 464 MiB
Duration : 1h 24mn
Overall bit rate mode : Variable
Overall bit rate : 765 Kbps
Encoded date : UTC 2012-02-24 12:58:04
Tagged date : UTC 2012-02-24 12:58:04

Video
ID : 1
Format : AVC
Format/Info : Advanced Video Codec
Format profile : <a href="mailto:Main@L3.0" class="postLink">Main@L3.0</a>
Format settings, CABAC : Yes
Format settings, ReFrames : 3 frames
Codec ID : avc1
Codec ID/Info : Advanced Video Coding
Duration : 1h 24mn
Bit rate : 634 Kbps
Maximum bit rate : 4 139 Kbps
Width : 480 pixels
Height : 208 pixels
Display aspect ratio : 2.35:1
Frame rate mode : Constant
Frame rate : 25.000 fps
Color space : YUV
Chroma subsampling : 4:2:0
Bit depth : 8 bits
Scan type : Progressive
Bits/(Pixel*Frame) : 0.254
Stream size : 385 MiB (83%)
Writing library : x264 core 120 r2164 da19765
Encoding settings : cabac=1 / ref=3 / deblock=1:0:0 / analyse=0x1:0x111 / me=tesa / subme=11 / psy=1 / psy_rd=1.00:0.00 / mixed_ref=1 / me_range=24 / chroma_me=1 / trellis=2 / 8x8dct=0 / cqm=0 / deadzone=21,11 / fast_pskip=0 / chroma_qp_offset=-2 / threads=6 / sliced_threads=0 / nr=0 / decimate=1 / interlaced=0 / bluray_compat=0 / constrained_intra=0 / bframes=16 / b_pyramid=0 / b_adapt=0 / b_bias=0 / direct=3 / weightb=1 / open_gop=0 / weightp=0 / keyint=250 / keyint_min=25 / scenecut=40 / intra_refresh=0 / rc_lookahead=40 / rc=crf / mbtree=1 / crf=16.5 / qcomp=0.60 / qpmin=10 / qpmax=51 / qpstep=4 / vbv_maxrate=10000 / vbv_bufsize=10000 / crf_max=0.0 / nal_hrd=none / ip_ratio=1.40 / aq=1:1.00
Encoded date : UTC 2012-02-24 11:29:47
Tagged date : UTC 2012-02-24 12:59:30

Audio
ID : 2
Format : AAC
Format/Info : Advanced Audio Codec
Format profile : LC
Codec ID : 40
Duration : 1h 24mn
Bit rate mode : Variable
Bit rate : 128 Kbps
Maximum bit rate : 134 Kbps
Channel(s) : 2 channels
Channel positions : Front: L R
Sampling rate : 48.0 KHz
Compression mode : Lossy
Stream size : 77.7 MiB (17%)
Encoded date : UTC 2012-02-24 12:59:18
Tagged date : UTC 2012-02-24 12:59:30


Трекер:  [ 06-Мар-2012 08:54 ]

  

Скачать .torrent

Размер .torrent файла 18 KB


Размер: 464 MB
Хэш (hash) релиза: 2c041efbcb8dc014bc7c89bcec4e390a86856028
Подписка на обновления:

Торренты, похожие на Камень скачать торрент

Форум Название Автор Размер S L Добавлен
Зарубежные фильмы до 2016 ·· Гарри Поттер и философский камень / Гарри Поттер и колдовской камень / Harry Potter and the Sorcerer's Stone (Крис Коламбус / Chris Columbus) [2001, США, Великобритания, фэнтези, приключения, семейный, BDRip] AVO (Сергей Визгунов) - ранний и поздний Galfimbul 23458201602.18 GB 0 0 1486318583

21:16

5-Фев-17

Зарубежные фильмы до 2016 ·· Мельница Каменных Дев / Мельница Каменных Женщин / Mill of the Stone Women / Il Mulino Delle Donne Di Pietra / Drops of Blood / Horror of the Stone Women (Джорджио Феррони / Giorgio Ferroni) [1960 г., ужасы, DVDrip] VO (Stalk) Galfimbul 15681025731.46 GB 0 0 1364798443

09:40

1-Апр-13

Мультсериалы ·· Камень сновидений / The DreamStone / Сезон: 1 / Серии: 1 из 52 (Мартин Гейтс) [1990–1995, Великобритания, Фэнтези, Детский, Приключения, VHSRip] Dub Galfimbul 419078719400 MB 0 0 1502436831

10:33

11-Авг-17

Зарубежные сериалы ·· Камен Райдеры Амазоны, сезон 2 / Kamen Rider Amazons, season 2 [13 из 13] [2017, Фантастика, ужасы, токусацу, HDTVRip] [RAW] [720p] Galfimbul 84517645317.87 GB 0 0 1501354768

21:59

29-Июл-17

Зарубежные фильмы 2016-2017 (Новинки зарубежного кино) ·· Каменное сердце / Hjartasteinn (Гюдмундур Гюдмундссон / Gudmundur Gudmundsson) [2016, Исландия, Дания, драма, WEB-DLRip] VO (innokent33 (StudiЯ)) + Sub Rus Galfimbul 19827792991.85 GB 0 0 1500294630

15:30

17-Июл-17

Документальные фильмы и телепередачи ·· Заветный камень Бориса Мокроусова (Сергей Сидоренко) [2009, Документальный, биография, музыка, искусство, IPTVRip] Galfimbul 664528896634 MB 0 0 1498880595

06:43

1-Июл-17

Зарубежные фильмы до 2016 ·· Гарри Поттер и философский камень / Harry Potter and the Sorcerer's Stone (Крис Коламбус / Chris Columbus) [2001, США, Великобритания, фэнтези, приключения, семейный, BDRip-AVC] [Ultimate Edition] Dub + AVO (Сербин) + Original + Subs (Rus, Eng) Galfimbul 31187865532.9 GB 2 0 1497673848

07:30

17-Июн-17

Зарубежные фильмы 2016-2017 (Новинки зарубежного кино) ·· Каменное сердце / Hjartasteinn (Гюдмундур Гюдмундссон / Gudmundur Gudmundsson) [2016, Исландия, мелодрама, DVDRip] + Sub Rus + Original Isl Galfimbul 782503639746 MB 0 0 1497418209

08:30

14-Июн-17

Зарубежные фильмы 2016-2017 (Новинки зарубежного кино) ·· Дом с каменными обезьянами / A komajmok haza (Гергели Фоньо) [2014, семейный, приключения, HDTVRip] Galfimbul 15795112221.47 GB 0 0 1496376782

07:13

2-Июн-17

Мультфильмы до 2016 ·· Камень на дороге / Камiнь на дорозi (Владимир Гончаров) [1968, СССР, мультфильм для взрослых, TVRip] Galfimbul 4497199043 MB 0 0 1491638041

10:54

8-Апр-17

Мультфильмы до 2016 ·· Кирпич твой камень / The Brick is your precious stone (Джамшед Мансуров) [1990, СССР, мультфильм для взрослых, WEBRip] Galfimbul 134557696128 MB 0 0 1490357526

15:12

24-Мар-17

Российские сериалы ·· Закон каменных джунглей / Сезон: 2 / Серии: 1-8 из 8 (Игорь Хомский, Иван Бурлаков) [2017, Детектив, драма, криминал, молодежный, HDTVRip 720p] Galfimbul 98608312789.18 GB 0 0 1490111316

18:48

21-Мар-17

Российские сериалы ·· Закон каменных джунглей / Сезон: 2 / Серии: 1 из 8 (Павел Костомаров) [2017, драма, криминал, HDTVRip-AVC] Galfimbul 814294947777 MB 0 0 1490109582

18:19

21-Мар-17

Российские сериалы ·· Закон каменных джунглей / Сезон: 2 / Серии: 1-8 из 8 (Игорь Хомский, Иван Бурлаков) [2017, Детектив, драма, криминал, молодежный, WEBRip-AVC] Galfimbul 59977851575.59 GB 0 0 1490089845

12:50

21-Мар-17

Российские сериалы ·· Закон каменных джунглей / Сезон: 2 / Серии: 1-8 из 8 (Игорь Хомский, Иван Бурлаков) [2017, Детектив, драма, криминал, молодежный, SATRip] Galfimbul 47734353924.45 GB 0 0 1490017520

16:45

20-Мар-17

Российские сериалы ·· Закон каменных джунглей / Сезон: 1 / Серии: 1-8 из 8 (Игорь Хомский, Иван Бурлаков) [2015, драма, криминал, WEBRip-AVC] Galfimbul 63712595235.93 GB 0 0 1489048972

11:42

9-Мар-17

Зарубежные фильмы до 2016 ·· Гарри Поттер и философский камень / Harry Potter and the Sorcerer's Stone (Крис Коламбус / Chris Columbus) [2001, США, Великобритания, фэнтези, приключения, семейный, BDRip] AVO (Сергей Визгунов) - ранний и поздний + AVO (Андрей Дольский) Galfimbul 25652208642.39 GB 0 0 1486809250

13:34

11-Фев-17

Зарубежные фильмы до 2016 ·· Каменное сердце / Herz aus Stein / Heart of Stone (Никос Лигурис / Nikos Ligouris) [1995, Германия, драма, DVD5 (Custom)] R2, AVO (Ю.Сербин) + Original Ger Galfimbul 45466439684.23 GB 0 0 1485979307

23:01

1-Фев-17

Российские сериалы ·· Каменное сердце / Серии: 1-4 из 4 (Александр Аравин) [2016, детектив, мелодрама, WEBRip (1080p)] Galfimbul 32988813253.07 GB 0 0 1480709860

23:17

2-Дек-16

Российские сериалы ·· Закон каменных джунглей / Сезон: 1 / Серии: 1-8 из 8 (Игорь Хомский, Иван Бурлаков) [2015, Драма, криминал, молодежный, WEBRip (720p)] Galfimbul 84695451227.89 GB 0 0 1480002296

18:44

24-Ноя-16

Еще никто не оставлял запись к записи скачать торрент Камень . Будь первым!

!Обратная связь