Скачать через торрент музыку Jw Jones - 2004 - 2010, APE бесплатно без регистрации torrent

Если у вас наблюдаются проблемы со скриншотами, переходом по ссылками, скачиванием торрентов - проблемы в блокировщике рекламы AdBlock. #хорошегоДня!


Статистика раздачи
Размер:  1.37 GB   |    Зарегистрирован:  5 лет 7 месяцев   |    .torrent скачан:  62 раза   |   
Раздают:  1  
   
Загрузка...
 
Автор Сообщение

Umakiro

avatar Umakiro


Jw Jones

Жанр: Blues
Год издания диска: 2004 - 2010
Аудио кодек: APE (*.ape)
Тип рипа: image+.cue
Битрейт аудио: lossless
Продолжительность: 58:36+1:08:24+51:29+48:34
Источник (релизер): CD
Наличие сканов в содержимом раздачи: да


Треклист:
01. Shake That Mess [0:03:55.53]
02. What You Do To Me [0:03:24.09]
03. Ain't Gonna Lie [0:03:28.57]
04. I Don't Know [0:05:01.88]
05. Cheating Woman [0:03:52.64]
06. Nothing On Me [0:04:08.53]
07. You Can't Fool Me [0:05:11.24]
08. Slow Down [0:05:30.98]
09. Blue Monday [0:02:50.25]
10. My Kind Of Evil [0:03:09.72]
11. You've Got ME (Where You Want Me) [0:04:43.01]
12. Code Blue [0:04:51.98]
13. Aching Pain [0:04:44.44]
14. Let's Have A Ball [0:03:42.88]
  
Exact Audio Copy V0.99 prebeta 4 from 23. January 2008

Отчёт EAC об извлечении, выполненном 23. марта 2011, 17:21

JW Jones / My Kind Of Evil

Дисковод: Optiarc DVD RW AD-7173A Adapter: 0 ID: 1

Режим чтения : ДостоверностьИспользование точного потока : ДаОтключение кэша аудио : ДаИспользование указателей C2 : Нет

Коррекция смещения при чтении : 48Способность читать области Lead-in и Lead-out : НетЗаполнение пропущенных сэмплов тишиной : ДаУдаление блоков с тишиной в начале и конце : НетПри вычислениях CRC использовались нулевые сэмплы : ДаИнтерфейс : Встроенный Win32-интерфейс для Win NT/2000

Выходной формат : Внутренние WAV-операцииФормат сэмплов : 44.100 Гц; 16 бит; стерео

TOC извлечённого CD

Трек | Старт | Длительность | Начальный сектор | Конечный сектор --------------------------------------------------------------------- 1 | 0:00.00 | 3:55.40 | 0 | 17664 2 | 3:55.40 | 3:24.07 | 17665 | 32971 3 | 7:19.47 | 3:28.43 | 32972 | 48614 4 | 10:48.15 | 5:01.66 | 48615 | 71255 5 | 15:50.06 | 3:52.48 | 71256 | 88703 6 | 19:42.54 | 4:08.40 | 88704 | 107343 7 | 23:51.19 | 5:11.18 | 107344 | 130686 8 | 29:02.37 | 5:30.74 | 130687 | 155510 9 | 34:33.36 | 2:50.19 | 155511 | 168279 10 | 37:23.55 | 3:09.54 | 168280 | 182508 11 | 40:33.34 | 4:43.01 | 182509 | 203734 12 | 45:16.35 | 4:51.74 | 203735 | 225633 13 | 50:08.34 | 4:44.33 | 225634 | 246966 14 | 54:52.67 | 3:42.66 | 246967 | 263682

Характеристики диапазона извлечения и сообщения об ошибках

Выбранный диапазон

Имя файла D:\КОЛЛЕКЦИЯ 10\Новая папка (2)\Новая папка\JW Jones - My Kind Of Evil.wav

Пиковый уровень 98.8 % Качество диапазона 100.0 % CRC теста 65276097 CRC копии 65276097 Копирование... OK

Ошибок не произошло

AccurateRip: сводка

Трек 1 точное извлечение (доверие 1) [BCC1BF70]Трек 2 точное извлечение (доверие 1) [EC71D2B6]Трек 3 точное извлечение (доверие 1) [2EEF933C]Трек 4 точное извлечение (доверие 1) [E1A1DE22]Трек 5 точное извлечение (доверие 1) [9309B0C6]Трек 6 точное извлечение (доверие 1) [3952F871]Трек 7 точное извлечение (доверие 1) [25DB72BA]Трек 8 точное извлечение (доверие 1) [4737DA76]Трек 9 точное извлечение (доверие 1) [6343A89C]Трек 10 точное извлечение (доверие 1) [06DB5ECB]Трек 11 точное извлечение (доверие 1) [167CE472]Трек 12 точное извлечение (доверие 1) [5A957C54]Трек 13 точное извлечение (доверие 1) [B68932EF]Трек 14 точное извлечение (доверие 1) [BD363098]

Все треки извлечены точно

Конец отчёта


Треклист:
01. Kissing In 29 Days [0:04:01.44]
02. Hey Girl! [0:04:08.64]
03. All My Money [0:04:22.85]
04. I Don't Want To Hear [0:04:04.54]
05. Games [0:05:17.81]
06. Parasomnia [0:04:34.36]
07. Fly To You [0:03:26.10]
08. Got Me Chasin' [0:04:15.54]
09. Way Too Late [0:04:49.32]
10. Hallelujah I Love Her So [0:04:37.48]
11. Pretty Little Sweet Thing [0:04:27.98]
12. Standing in Line [0:04:21.74]
13. No Love [0:05:04.46]
14. Here She Comes [0:10:51.40]
Exact Audio Copy V0.99 prebeta 4 from 23. January 2008

Отчёт EAC об извлечении, выполненном 23. марта 2011, 19:30

The JW-Jones Blues Band / Kissing in 29 Days

Дисковод: Optiarc DVD RW AD-7173A Adapter: 0 ID: 1

Режим чтения : Достоверность
Использование точного потока : Да
Отключение кэша аудио : Да
Использование указателей C2 : Нет

Коррекция смещения при чтении : 48
Способность читать области Lead-in и Lead-out : Нет
Заполнение пропущенных сэмплов тишиной : Да
Удаление блоков с тишиной в начале и конце : Нет
При вычислениях CRC использовались нулевые сэмплы : Да
Интерфейс : Встроенный Win32-интерфейс для Win NT/2000

Выходной формат : Внутренние WAV-операции
Формат сэмплов : 44.100 Гц; 16 бит; стерео

TOC извлечённого CD

Трек | Старт | Длительность | Начальный сектор | Конечный сектор
---------------------------------------------------------------------
1 | 0:00.00 | 4:01.33 | 0 | 18107
2 | 4:01.33 | 4:08.48 | 18108 | 36755
3 | 8:10.06 | 4:22.64 | 36756 | 56469
4 | 12:32.70 | 4:04.41 | 56470 | 74810
5 | 16:37.36 | 5:17.61 | 74811 | 98646
6 | 21:55.22 | 4:34.27 | 98647 | 119223
7 | 26:29.49 | 3:26.08 | 119224 | 134681
8 | 29:55.57 | 4:15.41 | 134682 | 153847
9 | 34:11.23 | 4:49.24 | 153848 | 175546
10 | 39:00.47 | 4:37.36 | 175547 | 196357
11 | 43:38.08 | 4:27.74 | 196358 | 216456
12 | 48:06.07 | 4:21.56 | 216457 | 236087
13 | 52:27.63 | 5:04.35 | 236088 | 258922
14 | 57:32.23 | 10:51.30 | 258923 | 307777

Характеристики диапазона извлечения и сообщения об ошибках

Выбранный диапазон

Имя файла D:\КОЛЛЕКЦИЯ 10\Новая папка (2)\Новая папка (4)\The JW-Jones Blues Band - Kissing in 29 Days.wav

Пиковый уровень 94.5 %
Качество диапазона 100.0 %
CRC теста 4149570C
CRC копии 4149570C
Копирование... OK

Ошибок не произошло

AccurateRip: сводка

Трек 1 точное извлечение (доверие 3) [6A5F0886]
Трек 2 точное извлечение (доверие 3) [E0F81CF0]
Трек 3 точное извлечение (доверие 3) [990F599A]
Трек 4 точное извлечение (доверие 3) [7754BCBC]
Трек 5 точное извлечение (доверие 3) [07B9B4E7]
Трек 6 точное извлечение (доверие 3) [E78C9ACE]
Трек 7 точное извлечение (доверие 3) [80291FA1]
Трек 8 точное извлечение (доверие 3) [4A93A5F9]
Трек 9 точное извлечение (доверие 3) [8928A2FA]
Трек 10 точное извлечение (доверие 3) [309DFDBF]
Трек 11 точное извлечение (доверие 3) [F7E3B8AC]
Трек 12 точное извлечение (доверие 3) [4B6FCE90]
Трек 13 точное извлечение (доверие 3) [D78ABC8A]
Трек 14 точное извлечение (доверие 3) [17776EE6]

Все треки извлечены точно

Конец отчёта


Треклист:
01. Double Eyed Whammy [0:04:08.81]
02. Looking the World Straight in the Eye [0:03:54.57]
03. Can't Play a Playboy [0:03:33.38]
04. Mad About You [0:02:52.21]
05. Wasted Life [0:03:24.06]
06. Somebody's Got to Burn [0:03:23.45]
07. Heavy Dosage [0:04:25.44]
08. That's Wrong Mama [0:03:12.01]
09. Waiting on You [0:03:33.65]
10. The Doctor [0:02:54.18]
11. Out of Service Blues [0:05:53.64]
12. Bogart Bounces Again [0:03:54.13]
13. Silent Treatment [0:02:50.21]
14. Tickets on Yourself [0:03:59.41]
Exact Audio Copy V0.99 prebeta 4 from 23. January 2008

Отчёт EAC об извлечении, выполненном 23. марта 2011, 17:48

JW-Jones / Bluelisted

Дисковод: Optiarc DVD RW AD-7173A Adapter: 0 ID: 1

Режим чтения : Достоверность
Использование точного потока : Да
Отключение кэша аудио : Да
Использование указателей C2 : Нет

Коррекция смещения при чтении : 48
Способность читать области Lead-in и Lead-out : Нет
Заполнение пропущенных сэмплов тишиной : Да
Удаление блоков с тишиной в начале и конце : Нет
При вычислениях CRC использовались нулевые сэмплы : Да
Интерфейс : Встроенный Win32-интерфейс для Win NT/2000

Выходной формат : Внутренние WAV-операции
Формат сэмплов : 44.100 Гц; 16 бит; стерео

TOC извлечённого CD

Трек | Старт | Длительность | Начальный сектор | Конечный сектор
---------------------------------------------------------------------
1 | 0:00.00 | 4:08.61 | 0 | 18660
2 | 4:08.61 | 3:54.43 | 18661 | 36253
3 | 8:03.29 | 3:33.29 | 36254 | 52257
4 | 11:36.58 | 2:52.16 | 52258 | 65173
5 | 14:28.74 | 3:24.05 | 65174 | 80478
6 | 17:53.04 | 3:23.34 | 80479 | 95737
7 | 21:16.38 | 4:25.33 | 95738 | 115645
8 | 25:41.71 | 3:12.01 | 115646 | 130046
9 | 28:53.72 | 3:33.49 | 130047 | 146070
10 | 32:27.46 | 2:54.14 | 146071 | 159134
11 | 35:21.60 | 5:53.48 | 159135 | 185657
12 | 41:15.33 | 3:54.10 | 185658 | 203217
13 | 45:09.43 | 2:50.16 | 203218 | 215983
14 | 47:59.59 | 3:59.31 | 215984 | 233939

Характеристики диапазона извлечения и сообщения об ошибках

Выбранный диапазон

Имя файла D:\КОЛЛЕКЦИЯ 10\Новая папка (2)\Новая папка (2)\JW-Jones - Bluelisted.wav

Пиковый уровень 98.8 %
Качество диапазона 100.0 %
CRC теста F45E0D41
CRC копии F45E0D41
Копирование... OK

Ошибок не произошло

AccurateRip: сводка

Трек 1 нет в базе данных
Трек 2 нет в базе данных
Трек 3 нет в базе данных
Трек 4 нет в базе данных
Трек 5 нет в базе данных
Трек 6 нет в базе данных
Трек 7 нет в базе данных
Трек 8 нет в базе данных
Трек 9 нет в базе данных
Трек 10 нет в базе данных
Трек 11 нет в базе данных
Трек 12 нет в базе данных
Трек 13 нет в базе данных
Трек 14 нет в базе данных

Ни одного трека нет в базе AccurateRip

Конец отчёта


Треклист:
01. Off The Market [0:03:59.38]
02. Love Grows Cold [0:02:15.74]
03. Kissin' In Memphis [0:04:44.94]
04. Cuts Like A Knife [0:04:06.92]
05. Born Operator [0:04:14.72]
06. Burnt Child [0:03:21.86]
07. Right On Time [0:04:29.94]
08. I Don't Go For That [0:03:48.25]
09. Mean Streak [0:04:55.64]
10. Make A Move [0:03:59.06]
11. Howlin' With Hubert [0:04:31.21]
12. Games [0:04:06.04]
Exact Audio Copy V0.99 prebeta 4 from 23. January 2008

Отчёт EAC об извлечении, выполненном 23. марта 2011, 18:59

Jw-Jones / Midnight Memphis Sun

Дисковод: Optiarc DVD RW AD-7173A Adapter: 0 ID: 1

Режим чтения : Достоверность
Использование точного потока : Да
Отключение кэша аудио : Да
Использование указателей C2 : Нет

Коррекция смещения при чтении : 48
Способность читать области Lead-in и Lead-out : Нет
Заполнение пропущенных сэмплов тишиной : Да
Удаление блоков с тишиной в начале и конце : Нет
При вычислениях CRC использовались нулевые сэмплы : Да
Интерфейс : Встроенный Win32-интерфейс для Win NT/2000

Выходной формат : Внутренние WAV-операции
Формат сэмплов : 44.100 Гц; 16 бит; стерео

TOC извлечённого CD

Трек | Старт | Длительность | Начальный сектор | Конечный сектор
---------------------------------------------------------------------
1 | 0:00.00 | 3:59.29 | 0 | 17953
2 | 3:59.29 | 2:15.56 | 17954 | 28134
3 | 6:15.10 | 4:44.71 | 28135 | 49505
4 | 11:00.06 | 4:06.69 | 49506 | 68024
5 | 15:07.00 | 4:14.54 | 68025 | 87128
6 | 19:21.54 | 3:21.65 | 87129 | 102268
7 | 22:43.44 | 4:29.71 | 102269 | 122514
8 | 27:13.40 | 3:48.19 | 122515 | 139633
9 | 31:01.59 | 4:55.48 | 139634 | 161806
10 | 35:57.32 | 3:59.05 | 161807 | 179736
11 | 39:56.37 | 4:31.16 | 179737 | 200077
12 | 44:27.53 | 4:06.03 | 200078 | 218530

Характеристики диапазона извлечения и сообщения об ошибках

Выбранный диапазон

Имя файла D:\КОЛЛЕКЦИЯ 10\Новая папка (2)\Новая папка (3)\Jw-Jones - Midnight Memphis Sun.wav

Пиковый уровень 100.0 %
Качество диапазона 100.0 %
CRC теста BFBE777A
CRC копии BFBE777A
Копирование... OK

Ошибок не произошло

AccurateRip: сводка

Трек 1 точность не определена (достоверность 1) [4053420A], AccurateRip вернул [8F1E1B19]
Трек 2 точность не определена (достоверность 1) [518AA837], AccurateRip вернул [9AF7FD1F]
Трек 3 точность не определена (достоверность 1) [4437FB6D], AccurateRip вернул [E12BE0B7]
Трек 4 точность не определена (достоверность 1) [C8176549], AccurateRip вернул [C01CEA47]
Трек 5 точность не определена (достоверность 1) [912FE6AE], AccurateRip вернул [BF1361D8]
Трек 6 точность не определена (достоверность 1) [F03A5858], AccurateRip вернул [D4FD1E85]
Трек 7 точность не определена (достоверность 1) [6FB82BE4], AccurateRip вернул [26F4E57C]
Трек 8 точность не определена (достоверность 1) [934CF30D], AccurateRip вернул [A079015D]
Трек 9 точность не определена (достоверность 1) [7C6E0418], AccurateRip вернул [D64B2EBA]
Трек 10 точность не определена (достоверность 1) [380BA2C0], AccurateRip вернул [7F826C3F]
Трек 11 точность не определена (достоверность 1) [A4A76D1C], AccurateRip вернул [0012BACE]
Трек 12 точность не определена (достоверность 1) [4910562A], AccurateRip вернул [59296EE5]

Ни один трек не прошёл проверки на точность
В вашей базе может быть иной вариант штамповки диска

Конец отчёта


Трекер:  [ 04-Мар-2012 19:04 ]

  

Скачать .torrent

Размер .torrent файла 17 KB


Размер: 1.37 GB
Хэш (hash) релиза: 0f177240e9cf4fa8e93bed51950a5fcdd33dcc7c

Еще никто не оставлял запись к записи скачать торрент Jw Jones - 2004 - 2010, APE . Будь первым!

!Обратная связь