Скачать через торрент музыку Ruthless Blues - Ruthless Blues - 1989, APE бесплатно без регистрации torrent

Если у вас наблюдаются проблемы со скриншотами, переходом по ссылками, скачиванием торрентов - проблемы в блокировщике рекламы AdBlock. #хорошегоДня!


Статистика раздачи
Размер:  314 MB   |    Зарегистрирован:  5 лет 7 месяцев   |    .torrent скачан:  66 раз   |   
Раздают:  1  
   
Загрузка...
 
Автор Сообщение

Umakiro

avatar Umakiro


Ruthless Blues - Ruthless Blues

Жанр: Blues
Год издания диска: 1989
Аудио кодек: APE (*.ape)
Тип рипа: image+.cue
Битрейт аудио: lossless
Продолжительность: 50:48
Источник (релизер): CD
Наличие сканов в содержимом раздачи: да
Треклист:
01. Fine Fine Fine [0:04:05.40]
02. Better Things To Do [0:03:39.64]
03. Never Told Me Why [0:05:32.09]
04. Too Many Drivers [0:03:49.57]
05. Solid Gold Mustang [0:03:29.13]
06. Tie Me Up [0:04:44.13]
07. Maintenance Man [0:04:07.29]
08. Tightrope Blues [0:05:21.60]
09. Ain't No Love (In The Heart Of The City) [0:06:00.33]
10. You Don't Love Me [0:04:24.50]
11. I Don't Need No Doctor [0:05:34.22]
  
Exact Audio Copy V0.99 prebeta 4 from 23. January 2008

EAC extraction logfile from 3. March 2011, 18:17

Ruthless Blues / Ruthless Blues

Used drive : Optiarc DVD RW AD-7173A Adapter: 3 ID: 0

Read mode : SecureUtilize accurate stream : YesDefeat audio cache : YesMake use of C2 pointers : No

Read offset correction : 48Overread into Lead-In and Lead-Out : NoFill up missing offset samples with silence : YesDelete leading and trailing silent blocks : NoNull samples used in CRC calculations : YesUsed interface : Native Win32 interface for Win NT & 2000

Used output format : Internal WAV RoutinesSample format : 44.100 Hz; 16 Bit; Stereo

TOC of the extracted CD

Track | Start | Length | Start sector | End sector --------------------------------------------------------- 1 | 0:00.32 | 4:05.30 | 32 | 18436 2 | 4:05.62 | 3:39.48 | 18437 | 34909 3 | 7:45.35 | 5:32.07 | 34910 | 59816 4 | 13:17.42 | 3:49.43 | 59817 | 77034 5 | 17:07.10 | 3:29.10 | 77035 | 92719 6 | 20:36.20 | 4:44.10 | 92720 | 114029 7 | 25:20.30 | 4:07.22 | 114030 | 132576 8 | 29:27.52 | 5:21.45 | 132577 | 156696 9 | 34:49.22 | 6:00.25 | 156697 | 183721 10 | 40:49.47 | 4:24.38 | 183722 | 203559 11 | 45:14.10 | 5:34.17 | 203560 | 228626

Range status and errors

Selected range

Filename D:\ФОТО - ШОП\КОЛЛЕКЦИЯ 10\Новая папка (2)\Ruthless Blues - Ruthless Blues.wav

Peak level 100.0 % Range quality 99.9 % Test CRC BA9FD337 Copy CRC BA9FD337 Copy OK

No errors occurred

AccurateRip summary

Track 1 not present in databaseTrack 2 not present in databaseTrack 3 not present in databaseTrack 4 not present in databaseTrack 5 not present in databaseTrack 6 not present in databaseTrack 7 not present in databaseTrack 8 not present in databaseTrack 9 not present in databaseTrack 10 not present in databaseTrack 11 not present in database

None of the tracks are present in the AccurateRip database

End of status report


Трекер:  [ 04-Мар-2012 19:04 ]

  

Скачать .torrent

Размер .torrent файла 13 KB


Размер: 314 MB
Хэш (hash) релиза: 99a1f587deb357328c0fb5eedf434d22bd74301c

Еще никто не оставлял запись к записи скачать торрент Ruthless Blues - Ruthless Blues - 1989, APE . Будь первым!

!Обратная связь