Скачать через торрент музыку Ruthless Blues - Sure Enough! - 1992, APE бесплатно без регистрации torrent

Если у вас наблюдаются проблемы со скриншотами, переходом по ссылками, скачиванием торрентов - проблемы в блокировщике рекламы AdBlock. #хорошегоДня!


Статистика раздачи
Размер:  308 MB   |    Зарегистрирован:  5 лет 7 месяцев   |    .torrent скачан:  65 раз   |   
Раздают:  1  
   
Загрузка...
 
Автор Сообщение

Umakiro

avatar Umakiro


Ruthless Blues - Sure Enough!

Жанр: Blues
Год издания диска: 1992
Аудио кодек: APE (*.ape)
Тип рипа: image+.cue
Битрейт аудио: lossless
Продолжительность: 50:36
Источник (релизер): CD
Наличие сканов в содержимом раздачи: да
Треклист:
01. The Stomp (Is That The Blues) [0:04:42.77]
02. Rollin' Drunk [0:03:56.56]
03. Can I See You Tonight [0:05:15.57]
04. Handle [0:04:01.40]
05. This Time [0:03:34.20]
06. Bad Case Of Lovin' You [0:03:50.33]
07. Nursery Rhyme Blues [0:05:24.60]
08. Break My Back [0:05:32.22]
09. Women Problems [0:05:26.90]
10. Born Under A Bad Sign [0:04:21.13]
11. Lowdown Blues [0:04:30.60]
  
Exact Audio Copy V0.99 prebeta 4 from 23. January 2008

Отчёт EAC об извлечении, выполненном 4. марта 2011, 12:47

Ruthless Blues / Sure Enough!

Дисковод: Optiarc DVD RW AD-7173A Adapter: 0 ID: 1

Режим чтения : ДостоверностьИспользование точного потока : ДаОтключение кэша аудио : ДаИспользование указателей C2 : Нет

Коррекция смещения при чтении : 48Способность читать области Lead-in и Lead-out : НетЗаполнение пропущенных сэмплов тишиной : ДаУдаление блоков с тишиной в начале и конце : НетПри вычислениях CRC использовались нулевые сэмплы : ДаИнтерфейс : Встроенный Win32-интерфейс для Win NT/2000

Выходной формат : Внутренние WAV-операцииФормат сэмплов : 44.100 Гц; 16 бит; стерео

TOC извлечённого CD

Трек | Старт | Длительность | Начальный сектор | Конечный сектор --------------------------------------------------------------------- 1 | 0:00.32 | 4:42.58 | 32 | 21239 2 | 4:43.15 | 3:56.42 | 21240 | 38981 3 | 8:39.57 | 5:15.43 | 38982 | 62649 4 | 13:55.25 | 4:01.30 | 62650 | 80754 5 | 17:56.55 | 3:34.15 | 80755 | 96819 6 | 21:30.70 | 3:50.25 | 96820 | 114094 7 | 25:21.20 | 5:24.45 | 114095 | 138439 8 | 30:45.65 | 5:32.17 | 138440 | 163356 9 | 36:18.07 | 5:26.68 | 163357 | 187874 10 | 41:45.00 | 4:21.10 | 187875 | 207459 11 | 46:06.10 | 4:30.45 | 207460 | 227754

Характеристики диапазона извлечения и сообщения об ошибках

Выбранный диапазон

Имя файла D:\КОЛЛЕКЦИЯ 10\Новая папка (5)\Ruthless Blues - Sure Enough!.wav

Пиковый уровень 100.0 % Качество диапазона 99.9 % CRC теста 284ABC17 CRC копии 284ABC17 Копирование... OK

Ошибок не произошло

AccurateRip: сводка

Трек 1 нет в базе данныхТрек 2 нет в базе данныхТрек 3 нет в базе данныхТрек 4 нет в базе данныхТрек 5 нет в базе данныхТрек 6 нет в базе данныхТрек 7 нет в базе данныхТрек 8 нет в базе данныхТрек 9 нет в базе данныхТрек 10 нет в базе данныхТрек 11 нет в базе данных

Ни одного трека нет в базе AccurateRip

Конец отчёта


Трекер:  [ 04-Мар-2012 19:04 ]

  

Скачать .torrent

Размер .torrent файла 13 KB


Размер: 308 MB
Хэш (hash) релиза: 9c84d0f14963347532143cc56cc16173c6b2ea12

Еще никто не оставлял запись к записи скачать торрент Ruthless Blues - Sure Enough! - 1992, APE . Будь первым!

!Обратная связь