Скачать через торрент музыку Mick Martin and The Blues Rockers - Good Reaction - 1998, APE бесплатно без регистрации torrent

Если у вас наблюдаются проблемы со скриншотами, переходом по ссылками, скачиванием торрентов - проблемы в блокировщике рекламы AdBlock. #хорошегоДня!


Статистика раздачи
Размер:  298 MB   |    Зарегистрирован:  5 лет 7 месяцев   |    .torrent скачан:  50 раз   |   
Раздают:  1  
   
Загрузка...
 
Автор Сообщение

Umakiro

avatar Umakiro


Mick Martin and The Blues Rockers - Good Reaction

Жанр: Blues
Год издания диска: 1998
Аудио кодек: APE (*.ape)
Тип рипа: image+.cue
Битрейт аудио: lossless
Продолжительность: 46:25
Источник (релизер): CD
Наличие сканов в содержимом раздачи: да
Треклист:
01. Good Reaction [0:03:59.66]
02. Back Talking Baby [0:04:42.42]
03. Lovehound [0:03:55.26]
04. Can't Get Enough [0:04:05.97]
05. I Don't Care [0:03:52.33]
06. Don't Give Up On Me [0:05:17.26]
07. I Don't Play Games [0:03:24.09]
08. Got You On My Mind [0:04:00.10]
09. You're Right [0:04:13.76]
10. Make Her Mine [0:04:00.70]
11. Been Burned [0:04:53.02]
  
Exact Audio Copy V0.99 prebeta 4 from 23. January 2008

Отчёт EAC об извлечении, выполненном 4. марта 2011, 18:01

Mick Martin and The Blues Rockers / Good Reaction

Дисковод: Optiarc DVD RW AD-7173A Adapter: 0 ID: 1

Режим чтения : ДостоверностьИспользование точного потока : ДаОтключение кэша аудио : ДаИспользование указателей C2 : Нет

Коррекция смещения при чтении : 48Способность читать области Lead-in и Lead-out : НетЗаполнение пропущенных сэмплов тишиной : ДаУдаление блоков с тишиной в начале и конце : НетПри вычислениях CRC использовались нулевые сэмплы : ДаИнтерфейс : Встроенный Win32-интерфейс для Win NT/2000

Выходной формат : Внутренние WAV-операцииФормат сэмплов : 44.100 Гц; 16 бит; стерео

TOC извлечённого CD

Трек | Старт | Длительность | Начальный сектор | Конечный сектор --------------------------------------------------------------------- 1 | 0:00.00 | 3:59.50 | 0 | 17974 2 | 3:59.50 | 4:42.32 | 17975 | 39156 3 | 8:42.07 | 3:55.20 | 39157 | 56801 4 | 12:37.27 | 4:05.73 | 56802 | 75249 5 | 16:43.25 | 3:52.25 | 75250 | 92674 6 | 20:35.50 | 5:17.20 | 92675 | 116469 7 | 25:52.70 | 3:24.07 | 116470 | 131776 8 | 29:17.02 | 4:00.08 | 131777 | 149784 9 | 33:17.10 | 4:13.57 | 149785 | 168816 10 | 37:30.67 | 4:00.53 | 168817 | 186869 11 | 41:31.45 | 4:53.02 | 186870 | 208846

Характеристики диапазона извлечения и сообщения об ошибках

Выбранный диапазон

Имя файла D:\КОЛЛЕКЦИЯ 10\Новая папка (11)\Mick Martin and The Blues Rockers - Good Reaction.wav

Пиковый уровень 100.0 % Качество диапазона 100.0 % CRC теста FB0D3D66 CRC копии FB0D3D66 Копирование... OK

Ошибок не произошло

AccurateRip: сводка

Трек 1 точное извлечение (доверие 1) [E73DE04E]Трек 2 точное извлечение (доверие 1) [F1F93CB0]Трек 3 точное извлечение (доверие 1) [0B379665]Трек 4 точное извлечение (доверие 1) [F828024F]Трек 5 точное извлечение (доверие 1) [C8367510]Трек 6 точное извлечение (доверие 1) [F923AFE3]Трек 7 точное извлечение (доверие 1) [8C2E1AE8]Трек 8 точное извлечение (доверие 1) [13C0D4AE]Трек 9 точное извлечение (доверие 1) [F859AD1E]Трек 10 точное извлечение (доверие 1) [2607DF91]Трек 11 точное извлечение (доверие 1) [E7DE3021]

Все треки извлечены точно

Конец отчёта


Трекер:  [ 04-Мар-2012 19:03 ]

  

Скачать .torrent

Размер .torrent файла 12 KB


Размер: 298 MB
Хэш (hash) релиза: 1e3923b9730ba3266db31d85f5af42f2dba68a3f

Еще никто не оставлял запись к записи скачать торрент Mick Martin and The Blues Rockers - Good Reaction - 1998, APE . Будь первым!

!Обратная связь