Скачать через торрент музыку Nitecry - Run For Cover - 1993, APE бесплатно без регистрации torrent

Если у вас наблюдаются проблемы со скриншотами, переходом по ссылками, скачиванием торрентов - проблемы в блокировщике рекламы AdBlock. #хорошегоДня!


Статистика раздачи
Размер:  362 MB   |    Зарегистрирован:  5 лет 7 месяцев   |    .torrent скачан:  45 раз   |   
Раздают:  1  
   
Загрузка...
 
Автор Сообщение

Umakiro

avatar Umakiro


Nitecry - Run For Cover

Жанр: Blues
Год издания диска: 1993
Аудио кодек: APE (*.ape)
Тип рипа: image+.cue
Битрейт аудио: lossless
Продолжительность: 58:13
Источник (релизер): CD
Наличие сканов в содержимом раздачи: да
Треклист:
01. If You Don't Love Me [0:03:51.02]
02. Run For Cover [0:04:46.46]
03. Same Rules Don't Apply [0:04:40.93]
04. Step To Window "B" [0:04:40.30]
05. Give It Up [0:02:56.26]
06. Blue Night [0:04:26.09]
07. Thanks For Everything [0:05:20.93]
08. Blues Party [0:03:21.20]
09. Troubles [0:05:53.70]
10. When I'm Drinkin' [0:04:45.46]
11. All Night Long [0:04:27.60]
12. Right By Me [0:04:33.80]
13. Let The Music [0:04:29.13]
  
Exact Audio Copy V0.99 prebeta 4 from 23. January 2008

Отчёт EAC об извлечении, выполненном 4. марта 2011, 14:55

Nitecry / Run For Cover

Дисковод: Optiarc DVD RW AD-7173A Adapter: 0 ID: 1

Режим чтения : ДостоверностьИспользование точного потока : ДаОтключение кэша аудио : ДаИспользование указателей C2 : Нет

Коррекция смещения при чтении : 48Способность читать области Lead-in и Lead-out : НетЗаполнение пропущенных сэмплов тишиной : ДаУдаление блоков с тишиной в начале и конце : НетПри вычислениях CRC использовались нулевые сэмплы : ДаИнтерфейс : Встроенный Win32-интерфейс для Win NT/2000

Выходной формат : Внутренние WAV-операцииФормат сэмплов : 44.100 Гц; 16 бит; стерео

TOC извлечённого CD

Трек | Старт | Длительность | Начальный сектор | Конечный сектор --------------------------------------------------------------------- 1 | 0:00.00 | 3:51.02 | 0 | 17326 2 | 3:51.02 | 4:46.35 | 17327 | 38811 3 | 8:37.37 | 4:40.70 | 38812 | 59881 4 | 13:18.32 | 4:40.23 | 59882 | 80904 5 | 17:58.55 | 2:56.20 | 80905 | 94124 6 | 20:55.00 | 4:26.07 | 94125 | 114081 7 | 25:21.07 | 5:20.70 | 114082 | 138151 8 | 30:42.02 | 3:21.15 | 138152 | 153241 9 | 34:03.17 | 5:53.53 | 153242 | 179769 10 | 39:56.70 | 4:45.35 | 179770 | 201179 11 | 44:42.30 | 4:27.45 | 201180 | 221249 12 | 49:10.00 | 4:33.60 | 221250 | 241784 13 | 53:43.60 | 4:29.10 | 241785 | 261969

Характеристики диапазона извлечения и сообщения об ошибках

Выбранный диапазон

Имя файла D:\КОЛЛЕКЦИЯ 10\Новая папка (8)\Nitecry - Run For Cover.wav

Пиковый уровень 99.9 % Качество диапазона 99.9 % CRC теста A2335F92 CRC копии A2335F92 Копирование... OK

Ошибок не произошло

AccurateRip: сводка

Трек 1 нет в базе данныхТрек 2 нет в базе данныхТрек 3 нет в базе данныхТрек 4 нет в базе данныхТрек 5 нет в базе данныхТрек 6 нет в базе данныхТрек 7 нет в базе данныхТрек 8 нет в базе данныхТрек 9 нет в базе данныхТрек 10 нет в базе данныхТрек 11 нет в базе данныхТрек 12 нет в базе данныхТрек 13 нет в базе данных

Ни одного трека нет в базе AccurateRip

Конец отчёта


Трекер:  [ 04-Мар-2012 19:03 ]

  

Скачать .torrent

Размер .torrent файла 15 KB


Размер: 362 MB
Хэш (hash) релиза: 14172fbed9b5783a186a7f101127b2daa4bbb7a2

Еще никто не оставлял запись к записи скачать торрент Nitecry - Run For Cover - 1993, APE . Будь первым!

!Обратная связь