Скачать через торрент музыку Randy McAllister - Double Rectified Bust Head - 1999, APE бесплатно без регистрации torrent

Если у вас наблюдаются проблемы со скриншотами, переходом по ссылками, скачиванием торрентов - проблемы в блокировщике рекламы AdBlock. #хорошегоДня!


Статистика раздачи
Размер:  376 MB   |    Зарегистрирован:  5 лет 7 месяцев   |    .torrent скачан:  52 раза   |   
Раздают:  1  
   
Загрузка...
 
Автор Сообщение

Umakiro

avatar Umakiro


Randy McAllister - Double Rectified Bust Head

Жанр: Blues
Год издания диска: 1999
Аудио кодек: APE (*.ape)
Тип рипа: image+.cue
Битрейт аудио: lossless
Продолжительность: 58:42
Источник (релизер): CD
Наличие сканов в содержимом раздачи: да
Треклист:
01. Texas Thang [0:03:49.29]
02. He Was Him [0:04:05.50]
03. Baseball Bat [0:04:38.42]
04. Blues Colored Soul [0:05:28.56]
05. Ain't Like The Movies [0:04:21.42]
06. Nasty Little Day Dreams [0:04:24.22]
07. Out-Classed [0:04:25.92]
08. 'S' On My Chest [0:04:00.94]
09. Who's The Parent, Who's The Child [0:04:56.60]
10. $127.00 Sandwich [0:05:00.01]
11. What Make A Man [0:04:05.29]
12. The Last Goodbye [0:05:47.93]
13. Invisible Man [0:03:38.05]
  
Exact Audio Copy V0.99 prebeta 4 from 23. January 2008

Отчёт EAC об извлечении, выполненном 4. марта 2011, 13:46

Randy McAllister / Double Rectified Bust Head

Дисковод: Optiarc DVD RW AD-7173A Adapter: 0 ID: 1

Режим чтения : ДостоверностьИспользование точного потока : ДаОтключение кэша аудио : ДаИспользование указателей C2 : Нет

Коррекция смещения при чтении : 48Способность читать области Lead-in и Lead-out : НетЗаполнение пропущенных сэмплов тишиной : ДаУдаление блоков с тишиной в начале и конце : НетПри вычислениях CRC использовались нулевые сэмплы : ДаИнтерфейс : Встроенный Win32-интерфейс для Win NT/2000

Выходной формат : Внутренние WAV-операцииФормат сэмплов : 44.100 Гц; 16 бит; стерео

TOC извлечённого CD

Трек | Старт | Длительность | Начальный сектор | Конечный сектор --------------------------------------------------------------------- 1 | 0:00.00 | 3:49.22 | 0 | 17196 2 | 3:49.22 | 4:05.38 | 17197 | 35609 3 | 7:54.60 | 4:38.32 | 35610 | 56491 4 | 12:33.17 | 5:28.42 | 56492 | 81133 5 | 18:01.59 | 4:21.32 | 81134 | 100740 6 | 22:23.16 | 4:24.17 | 100741 | 120557 7 | 26:47.33 | 4:25.69 | 120558 | 140501 8 | 31:13.27 | 4:00.71 | 140502 | 158572 9 | 35:14.23 | 4:56.45 | 158573 | 180817 10 | 40:10.68 | 5:00.01 | 180818 | 203318 11 | 45:10.69 | 4:05.22 | 203319 | 221715 12 | 49:16.16 | 5:47.70 | 221716 | 247810 13 | 55:04.11 | 3:38.04 | 247811 | 264164

Характеристики диапазона извлечения и сообщения об ошибках

Выбранный диапазон

Имя файла D:\КОЛЛЕКЦИЯ 10\Новая папка (6)\Randy McAllister - Double Rectified Bust Head.wav

Пиковый уровень 99.6 % Качество диапазона 99.9 % CRC теста 6C381F05 CRC копии 6C381F05 Копирование... OK

Ошибок не произошло

AccurateRip: сводка

Трек 1 точное извлечение (доверие 1) [E4771E13]Трек 2 точное извлечение (доверие 1) [CCCF4177]Трек 3 точное извлечение (доверие 1) [DFC51BDC]Трек 4 точное извлечение (доверие 1) [3AE0CB7E]Трек 5 точное извлечение (доверие 1) [5E32597B]Трек 6 точное извлечение (доверие 1) [5E666378]Трек 7 точное извлечение (доверие 1) [7B98B13B]Трек 8 точное извлечение (доверие 1) [3F7450CA]Трек 9 точное извлечение (доверие 1) [803546A0]Трек 10 точное извлечение (доверие 1) [294C4A8C]Трек 11 точное извлечение (доверие 1) [28C20B19]Трек 12 точное извлечение (доверие 1) [59C9DB75]Трек 13 точное извлечение (доверие 1) [E6686139]

Все треки извлечены точно

Конец отчёта


Трекер:  [ 04-Мар-2012 19:03 ]

  

Скачать .torrent

Размер .torrent файла 15 KB


Размер: 376 MB
Хэш (hash) релиза: e833edfcac24c849ceb2eefefcab04ef83e528a2

Еще никто не оставлял запись к записи скачать торрент Randy McAllister - Double Rectified Bust Head - 1999, APE . Будь первым!

!Обратная связь