Скачать через торрент музыку Dr. Hector & The Groove Injectors - Bad Connection - 1995, APE бесплатно без регистрации torrent

Если у вас наблюдаются проблемы со скриншотами, переходом по ссылками, скачиванием торрентов - проблемы в блокировщике рекламы AdBlock. #хорошегоДня!


Статистика раздачи
Размер:  326 MB   |    Зарегистрирован:  5 лет 7 месяцев   |    .torrent скачан:  73 раза   |   
Раздают:  1  
   
Загрузка...
 
Автор Сообщение

Umakiro

avatar Umakiro


Dr. Hector & The Groove Injectors - Bad Connection

Жанр: Blues-Rock
Год издания диска: 1995
Аудио кодек: APE (*.ape)
Тип рипа: image+.cue
Битрейт аудио: lossless
Продолжительность: 50:28
Источник (релизер): CD
Наличие сканов в содержимом раздачи: да
Треклист:
01. The Fever [0:04:13.56]
02. Mr. Right Now [0:03:57.57]
03. The High Cost Of Living [0:04:16.02]
04. Safe In Your Arms Again [0:05:08.44]
05. Midnight Run [0:03:46.02]
06. Eyes Of A Child [0:04:31.60]
07. Bad Connection [0:03:59.24]
08. No Mercy At All [0:04:33.09]
09. Doing All The Wrong Things Right [0:05:09.13]
10. City Lights [0:03:56.66]
11. A Fool Like Me [0:03:52.57]
12. Psychotherapy [0:03:04.33]
  
Exact Audio Copy V0.99 prebeta 4 from 23. January 2008

Отчёт EAC об извлечении, выполненном 29. декабря 2010, 1:37

Dr. Hector & The Groove Injectors / Bad Connection

Дисковод: PLEXTOR DVDR PX-820A Adapter: 3 ID: 1

Режим чтения : ДостоверностьИспользование точного потока : ДаОтключение кэша аудио : ДаИспользование указателей C2 : Нет

Коррекция смещения при чтении : 48Способность читать области Lead-in и Lead-out : НетЗаполнение пропущенных сэмплов тишиной : ДаУдаление блоков с тишиной в начале и конце : НетПри вычислениях CRC использовались нулевые сэмплы : ДаИнтерфейс : Встроенный Win32-интерфейс для Win NT/2000

Выходной формат : Внутренние WAV-операцииФормат сэмплов : 44.100 Гц; 16 бит; стерео

TOC извлечённого CD

Трек | Старт | Длительность | Начальный сектор | Конечный сектор --------------------------------------------------------------------- 1 | 0:00.00 | 4:13.42 | 0 | 19016 2 | 4:13.42 | 3:57.43 | 19017 | 36834 3 | 8:11.10 | 4:16.02 | 36835 | 56036 4 | 12:27.12 | 5:08.33 | 56037 | 79169 5 | 17:35.45 | 3:46.02 | 79170 | 96121 6 | 21:21.47 | 4:31.45 | 96122 | 116491 7 | 25:53.17 | 3:59.18 | 116492 | 134434 8 | 29:52.35 | 4:33.07 | 134435 | 154916 9 | 34:25.42 | 5:09.10 | 154917 | 178101 10 | 39:34.52 | 3:56.50 | 178102 | 195851 11 | 43:31.27 | 3:52.43 | 195852 | 213294 12 | 47:23.70 | 3:04.25 | 213295 | 227119

Характеристики диапазона извлечения и сообщения об ошибках

Выбранный диапазон

Имя файла D:\КОЛЛЕКЦИЯ 9\Новая папка (3)\Dr. Hector & The Groove Injectors - Bad Connection.wav

Пиковый уровень 100.0 % Качество диапазона 100.0 % CRC копии 066BE886 Копирование... OK

Ошибок не произошло

AccurateRip: сводка

Трек 1 точное извлечение (доверие 1) [2C3D2900]Трек 2 точное извлечение (доверие 1) [DB24D2E8]Трек 3 точное извлечение (доверие 1) [31479997]Трек 4 точное извлечение (доверие 1) [989FB454]Трек 5 точное извлечение (доверие 1) [7FE877B6]Трек 6 точное извлечение (доверие 1) [3AC54D24]Трек 7 точное извлечение (доверие 1) [0F64BAA3]Трек 8 точное извлечение (доверие 1) [6E0FD3AF]Трек 9 точное извлечение (доверие 1) [B783A067]Трек 10 точное извлечение (доверие 1) [1AD191D6]Трек 11 точное извлечение (доверие 1) [025CBB74]Трек 12 точное извлечение (доверие 1) [A86544F7]

Все треки извлечены точно

Конец отчёта


Трекер:  [ 04-Мар-2012 19:02 ]

  

Скачать .torrent

Размер .torrent файла 13 KB


Размер: 326 MB
Хэш (hash) релиза: 13f3642866beb34197a6e0981a6fbba856f44a5c

Еще никто не оставлял запись к записи скачать торрент Dr. Hector & The Groove Injectors - Bad Connection - 1995, APE . Будь первым!

!Обратная связь