Скачать через торрент музыку Albatross - Blues Landing - 2000, APE бесплатно без регистрации torrent

Если у вас наблюдаются проблемы со скриншотами, переходом по ссылками, скачиванием торрентов - проблемы в блокировщике рекламы AdBlock. #хорошегоДня!


Статистика раздачи
Размер:  285 MB   |    Зарегистрирован:  5 лет 7 месяцев   |    .torrent скачан:  67 раз   |   
Раздают:  1  
   
Загрузка...
 
Автор Сообщение

Umakiro

avatar Umakiro


Albatross - Blues Landing

Жанр: Blues-Rock
Год издания диска: 2000
Аудио кодек: APE (*.ape)
Тип рипа: image+.cue
Битрейт аудио: lossless
Продолжительность: 44:20
Источник (релизер): CD
Наличие сканов в содержимом раздачи: да
Треклист:
01. Intro [0:00:44.16]
02. High Tide [0:04:10.20]
03. Time Of Our Lives [0:03:51.44]
04. Man Of The World [0:04:51.36]
05. Short Skirt [0:04:51.16]
06. Wharf Blues [0:06:00.71]
07. Sea Line Woman [0:03:02.16]
08. Heart In My Hand [0:03:42.54]
09. Chameleon [0:03:49.59]
10. Embarcadero Blues [0:03:25.33]
11. American Stockade [0:05:50.18]
  
Exact Audio Copy V0.99 prebeta 4 from 23. January 2008

EAC extraction logfile from 6. January 2011, 22:07

Albatross(USA) / Blues Landing

Used drive : Optiarc DVD RW AD-7173A Adapter: 3 ID: 0

Read mode : SecureUtilize accurate stream : YesDefeat audio cache : YesMake use of C2 pointers : No

Read offset correction : 48Overread into Lead-In and Lead-Out : NoFill up missing offset samples with silence : YesDelete leading and trailing silent blocks : NoNull samples used in CRC calculations : YesUsed interface : Native Win32 interface for Win NT & 2000

Used output format : Internal WAV RoutinesSample format : 44.100 Hz; 16 Bit; Stereo

TOC of the extracted CD

Track | Start | Length | Start sector | End sector --------------------------------------------------------- 1 | 0:00.17 | 0:44.16 | 17 | 3332 2 | 0:44.33 | 4:10.20 | 3333 | 22102 3 | 4:54.53 | 3:51.44 | 22103 | 39471 4 | 8:46.22 | 4:51.36 | 39472 | 61332 5 | 13:37.58 | 4:51.16 | 61333 | 83173 6 | 18:28.74 | 6:00.71 | 83174 | 110244 7 | 24:29.70 | 3:02.16 | 110245 | 123910 8 | 27:32.11 | 3:42.54 | 123911 | 140614 9 | 31:14.65 | 3:49.59 | 140615 | 157848 10 | 35:04.49 | 3:25.33 | 157849 | 173256 11 | 38:30.07 | 5:50.18 | 173257 | 199524

Range status and errors

Selected range

Filename D:\КОЛЛЕКЦИЯ 9\Новая папка\Albatross(USA) - Blues Landing.wav

Peak level 89.1 % Range quality 99.9 % Copy CRC B25CC78D Copy OK

No errors occurred

AccurateRip summary

Track 1 accurately ripped (confidence 1) [D1D07453]Track 2 accurately ripped (confidence 1) [806A3AAB]Track 3 accurately ripped (confidence 1) [C6F6E9AA]Track 4 accurately ripped (confidence 1) [1F5C2008]Track 5 accurately ripped (confidence 1) [E88ED196]Track 6 accurately ripped (confidence 1) [E8696098]Track 7 accurately ripped (confidence 1) [33339BDD]Track 8 accurately ripped (confidence 1) [69B270B5]Track 9 accurately ripped (confidence 1) [EE67F3AE]Track 10 accurately ripped (confidence 1) [822C74E7]Track 11 accurately ripped (confidence 1) [AD8C5BF1]

All tracks accurately ripped

End of status report


Трекер:  [ 04-Мар-2012 19:02 ]

  

Скачать .torrent

Размер .torrent файла 12 KB


Размер: 285 MB
Хэш (hash) релиза: 93dafc59d78ef9f953515713831c8acecfb18dda

Еще никто не оставлял запись к записи скачать торрент Albatross - Blues Landing - 2000, APE . Будь первым!

!Обратная связь