Скачать через торрент музыку Al Basile - The Goods - 2010, APE бесплатно без регистрации torrent

Если у вас наблюдаются проблемы со скриншотами, переходом по ссылками, скачиванием торрентов - проблемы в блокировщике рекламы AdBlock. #хорошегоДня!


Статистика раздачи
Размер:  440 MB   |    Зарегистрирован:  5 лет 7 месяцев   |    .torrent скачан:  47 раз   |   
Раздают:  1  
   
Загрузка...
 
Автор Сообщение

Umakiro

avatar Umakiro


Al Basile - The Goods

Жанр: Blues
Год издания диска: 2010
Аудио кодек: APE (*.ape)
Тип рипа: image+.cue
Битрейт аудио: lossless
Продолжительность: 1:03:21
Источник (релизер): CD
Наличие сканов в содержимом раздачи: да

Треклист:
01. The Price (I Got to Pay) [0:03:58.56]
02. Along Come the Kid [0:03:24.30]
03. Lie Down in Darkness (Raise Up In Light) [0:05:13.80]
04. 1.843 Million [0:05:19.61]
05. Time Can Wait [0:05:22.18]
06. I Want to Put It There [0:03:44.56]
07. The Itch [0:04:22.40]
08. Mr. Graham Bell [0:09:14.93]
09. She's A Taker [0:03:34.82]
10. Reality Show [0:05:38.06]
11. Pealing Bells [0:05:10.04]
12. Don't Sleep on Santa [0:04:31.06]
13. Distant Ships [0:03:46.48]
  
Exact Audio Copy V0.99 prebeta 4 from 23. January 2008

Отчёт EAC об извлечении, выполненном 13. апреля 2011, 1:00

Al Basile / The Goods

Дисковод: Optiarc DVD RW AD-7173A Adapter: 0 ID: 1

Режим чтения : ДостоверностьИспользование точного потока : ДаОтключение кэша аудио : ДаИспользование указателей C2 : Нет

Коррекция смещения при чтении : 48Способность читать области Lead-in и Lead-out : НетЗаполнение пропущенных сэмплов тишиной : ДаУдаление блоков с тишиной в начале и конце : НетПри вычислениях CRC использовались нулевые сэмплы : ДаИнтерфейс : Встроенный Win32-интерфейс для Win NT/2000

Выходной формат : Внутренние WAV-операцииФормат сэмплов : 44.100 Гц; 16 бит; стерео

TOC извлечённого CD

Трек | Старт | Длительность | Начальный сектор | Конечный сектор --------------------------------------------------------------------- 1 | 0:00.00 | 3:58.42 | 0 | 17891 2 | 3:58.42 | 3:24.23 | 17892 | 33214 3 | 7:22.65 | 5:13.60 | 33215 | 56749 4 | 12:36.50 | 5:19.46 | 56750 | 80720 5 | 17:56.21 | 5:22.14 | 80721 | 104884 6 | 23:18.35 | 3:44.42 | 104885 | 121726 7 | 27:03.02 | 4:22.30 | 121727 | 141406 8 | 31:25.32 | 9:14.70 | 141407 | 183026 9 | 40:40.27 | 3:34.62 | 183027 | 199138 10 | 44:15.14 | 5:38.05 | 199139 | 224493 11 | 49:53.19 | 5:10.03 | 224494 | 247746 12 | 55:03.22 | 4:31.05 | 247747 | 268076 13 | 59:34.27 | 3:46.36 | 268077 | 285062

Характеристики диапазона извлечения и сообщения об ошибках

Выбранный диапазон

Имя файла D:\КОЛЛЕКЦИЯ 11\Новая папка\Al Basile - The Goods.wav

Пиковый уровень 97.7 % Качество диапазона 99.9 % CRC теста C066CDCB CRC копии C066CDCB Копирование... OK

Ошибок не произошло

AccurateRip: сводка

Трек 1 нет в базе данныхТрек 2 нет в базе данныхТрек 3 нет в базе данныхТрек 4 нет в базе данныхТрек 5 нет в базе данныхТрек 6 нет в базе данныхТрек 7 нет в базе данныхТрек 8 нет в базе данныхТрек 9 нет в базе данныхТрек 10 нет в базе данныхТрек 11 нет в базе данныхТрек 12 нет в базе данныхТрек 13 нет в базе данных

Ни одного трека нет в базе AccurateRip

Конец отчёта


Трекер:  [ 04-Мар-2012 19:01 ]

  

Скачать .torrent

Размер .torrent файла 18 KB


Размер: 440 MB
Хэш (hash) релиза: 18098bc01ddc8a7f86a253e659f56fa3798b772c

Еще никто не оставлял запись к записи скачать торрент Al Basile - The Goods - 2010, APE . Будь первым!

!Обратная связь