Скачать через торрент музыку Bob Page - Cash Is A Problem - 2000, APE бесплатно без регистрации torrent

Если у вас наблюдаются проблемы со скриншотами, переходом по ссылками, скачиванием торрентов - проблемы в блокировщике рекламы AdBlock. #хорошегоДня!


Статистика раздачи
Размер:  308 MB   |    Зарегистрирован:  5 лет 7 месяцев   |    .torrent скачан:  49 раз   |   
Раздают:  1  
   
Загрузка...
 
Автор Сообщение

Umakiro

avatar Umakiro


Bob Page - Cash Is A Problem

Жанр: Blues
Год издания диска: 2000
Аудио кодек: APE (*.ape)
Тип рипа: image+.cue
Битрейт аудио: lossless
Продолжительность: 50:45
Источник (релизер): CD
Наличие сканов в содержимом раздачи: да
Треклист:
01. Me & The Blues [0:03:48.22]
02. She's A Business Woman [0:04:08.13]
03. Things Could Be A whole Lot Worse [0:04:38.90]
04. Bobby Baxter's Dirty Boogie [0:03:07.68]
05. It Only Takes A Woman [0:05:09.52]
06. Behave Yourself [0:04:22.46]
07. Your Feet's Too Big [0:03:38.04]
08. Cash Is A Problem [0:05:04.98]
09. Her Mind Is Gone [0:04:26.09]
10. Hey Hey Fatman [0:04:37.58]
11. The Honeydripper [0:07:42.62]
  
Exact Audio Copy V0.99 prebeta 4 from 23. January 2008

Отчёт EAC об извлечении, выполненном 8. апреля 2011, 0:37

Bob Page / Cash Is A Problem

Дисковод: Optiarc DVD RW AD-7173A Adapter: 0 ID: 1

Режим чтения : ДостоверностьИспользование точного потока : ДаОтключение кэша аудио : ДаИспользование указателей C2 : Нет

Коррекция смещения при чтении : 48Способность читать области Lead-in и Lead-out : НетЗаполнение пропущенных сэмплов тишиной : ДаУдаление блоков с тишиной в начале и конце : НетПри вычислениях CRC использовались нулевые сэмплы : ДаИнтерфейс : Встроенный Win32-интерфейс для Win NT/2000

Выходной формат : Внутренние WAV-операцииФормат сэмплов : 44.100 Гц; 16 бит; стерео

TOC извлечённого CD

Трек | Старт | Длительность | Начальный сектор | Конечный сектор --------------------------------------------------------------------- 1 | 0:00.32 | 3:48.17 | 32 | 17148 2 | 3:48.49 | 4:08.10 | 17149 | 35758 3 | 7:56.59 | 4:38.68 | 35759 | 56676 4 | 12:35.52 | 3:07.51 | 56677 | 70752 5 | 15:43.28 | 5:09.39 | 70753 | 93966 6 | 20:52.67 | 4:22.35 | 93967 | 113651 7 | 25:15.27 | 3:38.03 | 113652 | 130004 8 | 28:53.30 | 5:04.74 | 130005 | 152878 9 | 33:58.29 | 4:26.07 | 152879 | 172835 10 | 38:24.36 | 4:37.44 | 172836 | 193654 11 | 43:02.05 | 7:42.47 | 193655 | 228351

Характеристики диапазона извлечения и сообщения об ошибках

Выбранный диапазон

Имя файла D:\КОЛЛЕКЦИЯ 11\Новая папка (10)\Bob Page - Cash Is A Problem.wav

Пиковый уровень 100.0 % Качество диапазона 99.9 % CRC теста 520ACCA8 CRC копии 520ACCA8 Копирование... OK

Ошибок не произошло

AccurateRip: сводка

Трек 1 нет в базе данныхТрек 2 нет в базе данныхТрек 3 нет в базе данныхТрек 4 нет в базе данныхТрек 5 нет в базе данныхТрек 6 нет в базе данныхТрек 7 нет в базе данныхТрек 8 нет в базе данныхТрек 9 нет в базе данныхТрек 10 нет в базе данныхТрек 11 нет в базе данных

Ни одного трека нет в базе AccurateRip

Конец отчёта


Трекер:  [ 04-Мар-2012 19:01 ]

  

Скачать .torrent

Размер .torrent файла 13 KB


Размер: 308 MB
Хэш (hash) релиза: daacb464026900a1bc2bddd426883e743b01ce

Еще никто не оставлял запись к записи скачать торрент Bob Page - Cash Is A Problem - 2000, APE . Будь первым!

!Обратная связь