Скачать через торрент музыку Denny Newman - Sleepwalking With You - 2007, APE бесплатно без регистрации torrent

Если у вас наблюдаются проблемы со скриншотами, переходом по ссылками, скачиванием торрентов - проблемы в блокировщике рекламы AdBlock. #хорошегоДня!


Статистика раздачи
Размер:  291 MB   |    Зарегистрирован:  5 лет 7 месяцев   |    .torrent скачан:  53 раза   |   
Раздают:  1  
   
Загрузка...
 
Автор Сообщение

Umakiro

avatar Umakiro


Denny Newman - Sleepwalking With You

Жанр: Blues
Год издания диска: 2007
Аудио кодек: APE (*.ape)
Тип рипа: image+.cue
Битрейт аудио: lossless
Продолжительность: 46:50
Источник (релизер): CD
Наличие сканов в содержимом раздачи: да
Треклист:
01. Livin' For the Past [0:04:05.97]
02. Sleepwalking With You [0:03:23.13]
03. This World Keep Turning [0:03:06.24]
04. Burying Ground [0:06:00.65]
05. . I'll Get Over You (When You Get Over Getting Over Me) [0:04:53.88]
06. The Case Is Closed [0:06:44.00]
07. Frenchman [0:05:32.25]
08. Potato Boat Blues [0:01:55.54]
09. When the Sun Don't Shine [0:05:24.81]
10. Goin' Down [0:05:43.65]
  
Exact Audio Copy V0.99 prebeta 4 from 23. January 2008

Отчёт EAC об извлечении, выполненном 7. апреля 2011, 17:59

Denny Newman / Sleepwalking With You

Дисковод: Optiarc DVD RW AD-7173A Adapter: 0 ID: 1

Режим чтения : ДостоверностьИспользование точного потока : ДаОтключение кэша аудио : ДаИспользование указателей C2 : Нет

Коррекция смещения при чтении : 48Способность читать области Lead-in и Lead-out : НетЗаполнение пропущенных сэмплов тишиной : ДаУдаление блоков с тишиной в начале и конце : НетПри вычислениях CRC использовались нулевые сэмплы : ДаИнтерфейс : Встроенный Win32-интерфейс для Win NT/2000

Выходной формат : Внутренние WAV-операцииФормат сэмплов : 44.100 Гц; 16 бит; стерео

TOC извлечённого CD

Трек | Старт | Длительность | Начальный сектор | Конечный сектор --------------------------------------------------------------------- 1 | 0:00.00 | 4:05.73 | 0 | 18447 2 | 4:05.73 | 3:23.10 | 18448 | 33682 3 | 7:29.08 | 3:06.18 | 33683 | 47650 4 | 10:35.26 | 6:00.49 | 47651 | 74699 5 | 16:36.00 | 4:53.66 | 74700 | 96740 6 | 21:29.66 | 6:44.00 | 96741 | 127040 7 | 28:13.66 | 5:32.19 | 127041 | 151959 8 | 33:46.10 | 1:55.41 | 151960 | 160625 9 | 35:41.51 | 5:24.61 | 160626 | 184986 10 | 41:06.37 | 5:43.49 | 184987 | 210760

Характеристики диапазона извлечения и сообщения об ошибках

Выбранный диапазон

Имя файла D:\КОЛЛЕКЦИЯ 11\Новая папка (2)\Denny Newman - Sleepwalking With You.wav

Пиковый уровень 100.0 % Качество диапазона 99.9 % CRC теста A152D36D CRC копии A152D36D Копирование... OK

Ошибок не произошло

AccurateRip: сводка

Трек 1 нет в базе данныхТрек 2 нет в базе данныхТрек 3 нет в базе данныхТрек 4 нет в базе данныхТрек 5 нет в базе данныхТрек 6 нет в базе данныхТрек 7 нет в базе данныхТрек 8 нет в базе данныхТрек 9 нет в базе данныхТрек 10 нет в базе данных

Ни одного трека нет в базе AccurateRip

Конец отчёта


Трекер:  [ 04-Мар-2012 19:01 ]

  

Скачать .torrent

Размер .torrent файла 12 KB


Размер: 291 MB
Хэш (hash) релиза: 8974466ec01325f784ceb7d650c9cf228b92ec99

Еще никто не оставлял запись к записи скачать торрент Denny Newman - Sleepwalking With You - 2007, APE . Будь первым!

!Обратная связь