Скачать через торрент музыку Kevin Selfe and The Tornadoes - Playing The Game - 2009, APE бесплатно без регистрации torrent

Если у вас наблюдаются проблемы со скриншотами, переходом по ссылками, скачиванием торрентов - проблемы в блокировщике рекламы AdBlock. #хорошегоДня!


Статистика раздачи
Размер:  295 MB   |    Зарегистрирован:  5 лет 7 месяцев   |    .torrent скачан:  44 раза   |   
Раздают:  1  
   
Загрузка...
 
Автор Сообщение

Umakiro

avatar Umakiro


Kevin Selfe and The Tornadoes - Playing The Game

Жанр: Blues
Год издания диска: 2009
Аудио кодек: APE (*.ape)
Тип рипа: image+.cue
Битрейт аудио: lossless
Продолжительность: 44:44
Источник (релизер): CD
Наличие сканов в содержимом раздачи: да
Треклист:
01. Just Like Pulling Teeth [0:04:26.50]
02. Blues Don't Take A Day Off [0:03:25.46]
03. How Much Longer [0:08:13.18]
04. Walking Funny [0:03:44.73]
05. Playing The Game [0:04:58.53]
06. The Way She Moves [0:03:41.56]
07. Lay It On the Table [0:03:20.00]
08. Long Greasy Night [0:05:16.86]
09. Good Dog To Kick [0:04:58.93]
10. Pulled Pork [0:02:38.28]
  
Exact Audio Copy V0.99 prebeta 4 from 23. January 2008

Отчёт EAC об извлечении, выполненном 15. апреля 2011, 15:38

Kevin Selfe and The Tornadoes / Playing The Game

Дисковод: Optiarc DVD RW AD-7173A Adapter: 0 ID: 1

Режим чтения : ДостоверностьИспользование точного потока : ДаОтключение кэша аудио : ДаИспользование указателей C2 : Нет

Коррекция смещения при чтении : 48Способность читать области Lead-in и Lead-out : НетЗаполнение пропущенных сэмплов тишиной : ДаУдаление блоков с тишиной в начале и конце : НетПри вычислениях CRC использовались нулевые сэмплы : ДаИнтерфейс : Встроенный Win32-интерфейс для Win NT/2000

Выходной формат : Внутренние WAV-операцииФормат сэмплов : 44.100 Гц; 16 бит; стерео

TOC извлечённого CD

Трек | Старт | Длительность | Начальный сектор | Конечный сектор --------------------------------------------------------------------- 1 | 0:00.00 | 4:26.38 | 0 | 19987 2 | 4:26.38 | 3:25.35 | 19988 | 35397 3 | 7:51.73 | 8:13.14 | 35398 | 72386 4 | 16:05.12 | 3:44.55 | 72387 | 89241 5 | 19:49.67 | 4:58.40 | 89242 | 111631 6 | 24:48.32 | 3:41.42 | 111632 | 128248 7 | 28:29.74 | 3:20.00 | 128249 | 143248 8 | 31:49.74 | 5:16.65 | 143249 | 167013 9 | 37:06.64 | 4:58.70 | 167014 | 189433 10 | 42:05.59 | 2:38.21 | 189434 | 201304

Характеристики диапазона извлечения и сообщения об ошибках

Выбранный диапазон

Имя файла D:\КОЛЛЕКЦИЯ 11\Новая папка (4)\Kevin Selfe and The Tornadoes - Playing The Game.wav

Пиковый уровень 99.5 % Качество диапазона 99.9 % CRC теста D9F8A659 CRC копии D9F8A659 Копирование... OK

Ошибок не произошло

AccurateRip: сводка

Трек 1 нет в базе данныхТрек 2 нет в базе данныхТрек 3 нет в базе данныхТрек 4 нет в базе данныхТрек 5 нет в базе данныхТрек 6 нет в базе данныхТрек 7 нет в базе данныхТрек 8 нет в базе данныхТрек 9 нет в базе данныхТрек 10 нет в базе данных

Ни одного трека нет в базе AccurateRip

Конец отчёта


Трекер:  [ 04-Мар-2012 19:00 ]

  

Скачать .torrent

Размер .torrent файла 12 KB


Размер: 295 MB
Хэш (hash) релиза: 48a68cb04d8ff4450c0d3d49e3cb631701c7da01

Еще никто не оставлял запись к записи скачать торрент Kevin Selfe and The Tornadoes - Playing The Game - 2009, APE . Будь первым!

!Обратная связь