Скачать через торрент музыку Night Horse - The Dark Wont Hide You - 2008, APE бесплатно без регистрации torrent

Если у вас наблюдаются проблемы со скриншотами, переходом по ссылками, скачиванием торрентов - проблемы в блокировщике рекламы AdBlock. #хорошегоДня!


Статистика раздачи
Размер:  241 MB   |    Зарегистрирован:  5 лет 7 месяцев   |    .torrent скачан:  90 раз   |   
Раздают:  1  
   
Загрузка...
 
Автор Сообщение

Umakiro

avatar Umakiro


Night Horse - The Dark Won't Hide You

Жанр: Blues-Rock
Год издания диска: 2008
Аудио кодек: APE (*.ape)
Тип рипа: image+.cue
Битрейт аудио: lossless
Продолжительность: 32:58
Источник (релизер): CD
Наличие сканов в содержимом раздачи: да
Треклист:
01. Don't Need Your Lovin' [0:06:23.81]
02. The Dark Won't Hide You [0:04:47.49]
03. Wicked Love [0:05:19.05]
04. Shine On Me [0:05:35.14]
05. Worried Life Blues [0:04:22.73]
06. For You (Greg's Lament) [0:06:30.02]
  
Exact Audio Copy V0.99 prebeta 4 from 23. January 2008

Отчёт EAC об извлечении, выполненном 15. апреля 2011, 14:54

Night Horse / The Dark Won't Hide You

Дисковод: Optiarc DVD RW AD-7173A Adapter: 0 ID: 1

Режим чтения : ДостоверностьИспользование точного потока : ДаОтключение кэша аудио : ДаИспользование указателей C2 : Нет

Коррекция смещения при чтении : 48Способность читать области Lead-in и Lead-out : НетЗаполнение пропущенных сэмплов тишиной : ДаУдаление блоков с тишиной в начале и конце : НетПри вычислениях CRC использовались нулевые сэмплы : ДаИнтерфейс : Встроенный Win32-интерфейс для Win NT/2000

Выходной формат : Внутренние WAV-операцииФормат сэмплов : 44.100 Гц; 16 бит; стерео

TOC извлечённого CD

Трек | Старт | Длительность | Начальный сектор | Конечный сектор --------------------------------------------------------------------- 1 | 0:00.00 | 6:23.61 | 0 | 28785 2 | 6:23.61 | 4:47.37 | 28786 | 50347 3 | 11:11.23 | 5:19.04 | 50348 | 74276 4 | 16:30.27 | 5:35.11 | 74277 | 99412 5 | 22:05.38 | 4:22.55 | 99413 | 119117 6 | 26:28.18 | 6:30.02 | 119118 | 148369

Характеристики диапазона извлечения и сообщения об ошибках

Выбранный диапазон

Имя файла D:\КОЛЛЕКЦИЯ 11\Новая папка (3)\Night Horse - The Dark Won't Hide You.wav

Пиковый уровень 98.8 % Качество диапазона 99.9 % CRC теста 91EE6FB2 CRC копии 91EE6FB2 Копирование... OK

Ошибок не произошло

AccurateRip: сводка

Трек 1 точное извлечение (доверие 1) [A92C3A5F]Трек 2 точное извлечение (доверие 1) [DA000B10]Трек 3 точное извлечение (доверие 1) [A880C45A]Трек 4 точное извлечение (доверие 1) [78993A77]Трек 5 точное извлечение (доверие 1) [A25921BF]Трек 6 точное извлечение (доверие 1) [7A7A3494]

Все треки извлечены точно

Конец отчёта


Трекер:  [ 04-Мар-2012 19:00 ]

  

Скачать .torrent

Размер .torrent файла 19 KB


Размер: 241 MB
Хэш (hash) релиза: 512f302fe34520a19e2994015603cd897b27bb85

Еще никто не оставлял запись к записи скачать торрент Night Horse - The Dark Wont Hide You - 2008, APE . Будь первым!

!Обратная связь