Скачать через торрент музыку Rick Carroll & Wicked Blue - Semi Automatic Slim - 1998, APE бесплатно без регистрации torrent

Если у вас наблюдаются проблемы со скриншотами, переходом по ссылками, скачиванием торрентов - проблемы в блокировщике рекламы AdBlock. #хорошегоДня!


Статистика раздачи
Размер:  346 MB   |    Зарегистрирован:  5 лет 7 месяцев   |    .torrent скачан:  55 раз   |   
Раздают:  1  
   
Загрузка...
 
Автор Сообщение

Umakiro

avatar Umakiro


Rick Carroll & Wicked Blue - Semi Automatic Slim

Жанр: Blues-Rock
Год издания диска: 1998
Аудио кодек: APE (*.ape)
Тип рипа: image+.cue
Битрейт аудио: lossless
Продолжительность: 49:20
Источник (релизер): CD
Наличие сканов в содержимом раздачи: да
Треклист:
01. Come On In My Kitchen [0:04:43.92]
02. Got My Eye On You [0:03:17.17]
03. Little Bird [0:06:48.53]
04. Bye Bye Baby [0:05:20.37]
05. Working Girl [0:03:45.89]
06. Bad Need [0:04:23.00]
07. Can't Find The Reason Why [0:06:14.50]
08. I'm Your Hoochie Coochie Man [0:03:46.42]
09. I Just Want To Make Love To You [0:05:03.62]
10. Goin' Home [0:05:56.54]
  
Exact Audio Copy V0.99 prebeta 4 from 23. January 2008

Отчёт EAC об извлечении, выполненном 8. апреля 2011, 1:18

Rick Carroll & Wicked Blue / Semi Automatic Slim

Дисковод: Optiarc DVD RW AD-7173A Adapter: 0 ID: 1

Режим чтения : ДостоверностьИспользование точного потока : ДаОтключение кэша аудио : ДаИспользование указателей C2 : Нет

Коррекция смещения при чтении : 48Способность читать области Lead-in и Lead-out : НетЗаполнение пропущенных сэмплов тишиной : ДаУдаление блоков с тишиной в начале и конце : НетПри вычислениях CRC использовались нулевые сэмплы : ДаИнтерфейс : Встроенный Win32-интерфейс для Win NT/2000

Выходной формат : Внутренние WAV-операцииФормат сэмплов : 44.100 Гц; 16 бит; стерео

TOC извлечённого CD

Трек | Старт | Длительность | Начальный сектор | Конечный сектор --------------------------------------------------------------------- 1 | 0:00.00 | 4:43.69 | 0 | 21293 2 | 4:43.69 | 3:17.13 | 21294 | 36081 3 | 8:01.07 | 6:48.40 | 36082 | 66721 4 | 14:49.47 | 5:20.28 | 66722 | 90749 5 | 20:10.00 | 3:45.67 | 90750 | 107691 6 | 23:55.67 | 4:23.00 | 107692 | 127416 7 | 28:18.67 | 6:14.38 | 127417 | 155504 8 | 34:33.30 | 3:46.32 | 155505 | 172486 9 | 38:19.62 | 5:03.47 | 172487 | 195258 10 | 43:23.34 | 5:56.41 | 195259 | 221999

Характеристики диапазона извлечения и сообщения об ошибках

Выбранный диапазон

Имя файла D:\КОЛЛЕКЦИЯ 11\Новая папка (12)\Rick Carroll & Wicked Blue - Semi Automatic Slim.wav

Пиковый уровень 99.9 % Качество диапазона 99.9 % CRC теста BBF1ACC4 CRC копии BBF1ACC4 Копирование... OK

Ошибок не произошло

AccurateRip: сводка

Трек 1 нет в базе данныхТрек 2 нет в базе данныхТрек 3 нет в базе данныхТрек 4 нет в базе данныхТрек 5 нет в базе данныхТрек 6 нет в базе данныхТрек 7 нет в базе данныхТрек 8 нет в базе данныхТрек 9 нет в базе данныхТрек 10 нет в базе данных

Ни одного трека нет в базе AccurateRip

Конец отчёта


Трекер:  [ 04-Мар-2012 18:59 ]

  

Скачать .torrent

Размер .torrent файла 14 KB


Размер: 346 MB
Хэш (hash) релиза: 39d122335d8c04c1d8d2bae0a4a6161fff5f33e7

Еще никто не оставлял запись к записи скачать торрент Rick Carroll & Wicked Blue - Semi Automatic Slim - 1998, APE . Будь первым!

!Обратная связь