Скачать через торрент музыку Paddy Milner - 21st Century Boogie - 2000, APE бесплатно без регистрации torrent

Если у вас наблюдаются проблемы со скриншотами, переходом по ссылками, скачиванием торрентов - проблемы в блокировщике рекламы AdBlock. #хорошегоДня!


Статистика раздачи
Размер:  276 MB   |    Зарегистрирован:  5 лет 7 месяцев   |    .torrent скачан:  65 раз   |   
Раздают:  1  
   
Загрузка...
 
Автор Сообщение

Umakiro

avatar Umakiro


Paddy Milner - 21st Century Boogie

Жанр: Boogie-Blues
Год издания диска: 2000
Аудио кодек: APE (*.ape)
Тип рипа: image+.cue
Битрейт аудио: lossless
Продолжительность: 48:15
Источник (релизер): CD
Наличие сканов в содержимом раздачи: да
Треклист:
01. 21st century boogie [0:04:13.22]
02. I'm ready [0:05:22.04]
03. Swannee river samba [0:02:33.16]
04. The days, the nights [0:07:11.70]
05. Highway sound [0:04:33.02]
06. Prelude to caravan [0:02:03.73]
07. Caravan [0:04:06.93]
08. Late nights playing the blues [0:04:31.30]
09. Prelude to bumble fumble [0:01:44.29]
10. The bumble fumble [0:03:56.70]
11. Boogie woogie time of year [0:03:46.66]
12. The world is getting smaller everyday [0:04:12.02]
  
Exact Audio Copy V0.99 prebeta 4 from 23. January 2008

Отчёт EAC об извлечении, выполненном 7. апреля 2011, 23:14

Paddy Milner / 21st Century Boogie

Дисковод: Optiarc DVD RW AD-7173A Adapter: 0 ID: 1

Режим чтения : ДостоверностьИспользование точного потока : ДаОтключение кэша аудио : ДаИспользование указателей C2 : Нет

Коррекция смещения при чтении : 48Способность читать области Lead-in и Lead-out : НетЗаполнение пропущенных сэмплов тишиной : ДаУдаление блоков с тишиной в начале и конце : НетПри вычислениях CRC использовались нулевые сэмплы : ДаИнтерфейс : Встроенный Win32-интерфейс для Win NT/2000

Выходной формат : Внутренние WAV-операцииФормат сэмплов : 44.100 Гц; 16 бит; стерео

TOC извлечённого CD

Трек | Старт | Длительность | Начальный сектор | Конечный сектор --------------------------------------------------------------------- 1 | 0:00.00 | 4:13.17 | 0 | 18991 2 | 4:13.17 | 5:22.03 | 18992 | 43144 3 | 9:35.20 | 2:33.12 | 43145 | 54631 4 | 12:08.32 | 7:11.53 | 54632 | 87009 5 | 19:20.10 | 4:33.02 | 87010 | 107486 6 | 23:53.12 | 2:03.55 | 107487 | 116766 7 | 25:56.67 | 4:06.70 | 116767 | 135286 8 | 30:03.62 | 4:31.23 | 135287 | 155634 9 | 34:35.10 | 1:44.22 | 155635 | 163456 10 | 36:19.32 | 3:56.53 | 163457 | 181209 11 | 40:16.10 | 3:46.50 | 181210 | 198209 12 | 44:02.60 | 4:12.02 | 198210 | 217111

Характеристики диапазона извлечения и сообщения об ошибках

Выбранный диапазон

Имя файла D:\КОЛЛЕКЦИЯ 11\Новая папка (8)\Paddy Milner - 21st Century Boogie.wav

Пиковый уровень 98.8 % Качество диапазона 100.0 % CRC копии 9CA73B57 Копирование... OK

Ошибок не произошло

AccurateRip: сводка

Трек 1 точное извлечение (доверие 1) [42671DE2]Трек 2 точное извлечение (доверие 1) [6F2AE4EA]Трек 3 точное извлечение (доверие 1) [94AC192E]Трек 4 точное извлечение (доверие 1) [9917D9D0]Трек 5 точное извлечение (доверие 1) [37ECE62B]Трек 6 точное извлечение (доверие 1) [C9C104CF]Трек 7 точное извлечение (доверие 1) [F9411AB7]Трек 8 точное извлечение (доверие 1) [FD850B6C]Трек 9 точное извлечение (доверие 1) [F31101E8]Трек 10 точное извлечение (доверие 1) [55EF4262]Трек 11 точное извлечение (доверие 1) [2F2D4DB2]Трек 12 точное извлечение (доверие 1) [0B918BBE]

Все треки извлечены точно

Конец отчёта


Трекер:  [ 04-Мар-2012 18:59 ]

  

Скачать .torrent

Размер .torrent файла 12 KB


Размер: 276 MB
Хэш (hash) релиза: 850c87f1b5c482d1e3dc74593d1da0318be27c46

Еще никто не оставлял запись к записи скачать торрент Paddy Milner - 21st Century Boogie - 2000, APE . Будь первым!

!Обратная связь