Скачать через торрент музыку The Crudup Brothers - Franktown Blues - 2000, APE бесплатно без регистрации torrent

Если у вас наблюдаются проблемы со скриншотами, переходом по ссылками, скачиванием торрентов - проблемы в блокировщике рекламы AdBlock. #хорошегоДня!


Статистика раздачи
Размер:  539 MB   |    Зарегистрирован:  5 лет 7 месяцев   |    .torrent скачан:  62 раза   |   
Раздают:  1  
   
Загрузка...
 
Автор Сообщение

Umakiro

avatar Umakiro


The Crudup Brothers - Franktown Blues

Жанр: Blues
Год издания диска: 2000
Аудио кодек: APE (*.ape)
Тип рипа: image+.cue
Битрейт аудио: lossless
Продолжительность: 1:12:22
Источник (релизер): CD
Наличие сканов в содержимом раздачи: да
Треклист:
01. That's Alright Mama [0:04:40.14]
02. Greyhound Bus [0:05:29.45]
03. Mean Old Frisco Blues [0:04:41.52]
04. Going Down In Style [0:05:12.08]
05. Franktown Blues [0:04:07.86]
06. Who's Talking [0:04:49.32]
07. Memories Of Miseries [0:04:33.62]
08. My Kind Of Woman [0:03:12.26]
09. Fur Slippers [0:03:29.61]
10. When Love Is On His Knees [0:04:46.37]
11. Something On My Mind [0:05:07.58]
12. Move A Little Closer [0:03:40.49]
13. Old And Grey [0:04:35.88]
14. Look On Yonders Wall [0:04:17.77]
15. She's Got The Key [0:03:44.89]
16. Malibu Jammin' For James [0:05:53.28]
  
Exact Audio Copy V0.99 prebeta 4 from 23. January 2008

Отчёт EAC об извлечении, выполненном 7. апреля 2011, 17:00

The Crudup Brothers / Franktown Blues

Дисковод: Optiarc DVD RW AD-7173A Adapter: 0 ID: 1

Режим чтения : ДостоверностьИспользование точного потока : ДаОтключение кэша аудио : ДаИспользование указателей C2 : Нет

Коррекция смещения при чтении : 48Способность читать области Lead-in и Lead-out : НетЗаполнение пропущенных сэмплов тишиной : ДаУдаление блоков с тишиной в начале и конце : НетПри вычислениях CRC использовались нулевые сэмплы : ДаИнтерфейс : Встроенный Win32-интерфейс для Win NT/2000

Выходной формат : Внутренние WAV-операцииФормат сэмплов : 44.100 Гц; 16 бит; стерео

TOC извлечённого CD

Трек | Старт | Длительность | Начальный сектор | Конечный сектор --------------------------------------------------------------------- 1 | 0:00.00 | 4:40.11 | 0 | 21010 2 | 4:40.11 | 5:29.34 | 21011 | 45719 3 | 10:09.45 | 4:41.39 | 45720 | 66833 4 | 14:51.09 | 5:12.06 | 66834 | 90239 5 | 20:03.15 | 4:07.65 | 90240 | 108829 6 | 24:11.05 | 4:49.24 | 108830 | 130528 7 | 29:00.29 | 4:33.47 | 130529 | 151050 8 | 33:34.01 | 3:12.20 | 151051 | 165470 9 | 36:46.21 | 3:29.46 | 165471 | 181191 10 | 40:15.67 | 4:46.28 | 181192 | 202669 11 | 45:02.20 | 5:07.44 | 202670 | 225738 12 | 50:09.64 | 3:40.37 | 225739 | 242275 13 | 53:50.26 | 4:35.66 | 242276 | 262966 14 | 58:26.17 | 4:17.58 | 262967 | 282299 15 | 62:44.00 | 3:44.67 | 282300 | 299166 16 | 66:28.67 | 5:53.21 | 299167 | 325662

Характеристики диапазона извлечения и сообщения об ошибках

Выбранный диапазон

Имя файла D:\КОЛЛЕКЦИЯ 11\Новая папка\The Crudup Brothers - Franktown Blues.wav

Пиковый уровень 94.0 % Качество диапазона 99.9 % CRC теста DE5A4843 CRC копии DE5A4843 Копирование... OK

Ошибок не произошло

AccurateRip: сводка

Трек 1 нет в базе данныхТрек 2 нет в базе данныхТрек 3 нет в базе данныхТрек 4 нет в базе данныхТрек 5 нет в базе данныхТрек 6 нет в базе данныхТрек 7 нет в базе данныхТрек 8 нет в базе данныхТрек 9 нет в базе данныхТрек 10 нет в базе данныхТрек 11 нет в базе данныхТрек 12 нет в базе данныхТрек 13 нет в базе данныхТрек 14 нет в базе данныхТрек 15 нет в базе данныхТрек 16 нет в базе данных

Ни одного трека нет в базе AccurateRip

Конец отчёта


Трекер:  [ 04-Мар-2012 18:59 ]

  

Скачать .torrent

Размер .torrent файла 11 KB


Размер: 539 MB
Хэш (hash) релиза: 80c547127b01b0f099555668c8cf3ba7e63576c3

Еще никто не оставлял запись к записи скачать торрент The Crudup Brothers - Franktown Blues - 2000, APE . Будь первым!

!Обратная связь