Скачать через торрент музыку Boogie Stuff - 1992-2001-2004, APE бесплатно без регистрации torrent

Если у вас наблюдаются проблемы со скриншотами, переходом по ссылками, скачиванием торрентов - проблемы в блокировщике рекламы AdBlock. #хорошегоДня!


Статистика раздачи
Размер:  872 MB   |    Зарегистрирован:  5 лет 7 месяцев   |    .torrent скачан:  77 раз   |   
Раздают:  1  
   
Загрузка...
 
Автор Сообщение

Umakiro

avatar Umakiro


Boogie Stuff

Жанр: Melodic Blues Rock
Год издания диска: 1992-2001-2004
Аудио кодек: APE (*.ape)
Тип рипа: image+.cue
Битрейт аудио: lossless
Продолжительность: 18:16+42:27+1:02:51
Источник (релизер): CD
Наличие сканов в содержимом раздачи: да
Треклист:
01. Take The Rap [0:02:27.66]
02. i Can't Do My Homework [0:03:43.22]
03. You Can't Love Me [0:03:15.20]
04. Down At The Doctors [0:02:47.60]
05. You Upset Me [0:02:48.06]
06. Bye Bye [0:03:14.37]
  
Exact Audio Copy V0.99 prebeta 4 from 23. January 2008

Отчёт EAC об извлечении, выполненном 24. сентября 2010, 13:42

Boogie Stuff / Rockin' The Blues

Дисковод: PLEXTOR DVDR PX-820A Adapter: 3 ID: 1

Режим чтения : ДостоверностьИспользование точного потока : ДаОтключение кэша аудио : ДаИспользование указателей C2 : Нет

Коррекция смещения при чтении : 48Способность читать области Lead-in и Lead-out : НетЗаполнение пропущенных сэмплов тишиной : ДаУдаление блоков с тишиной в начале и конце : НетПри вычислениях CRC использовались нулевые сэмплы : ДаИнтерфейс : Встроенный Win32-интерфейс для Win NT/2000

Выходной формат : Внутренние WAV-операцииФормат сэмплов : 44.100 Гц; 16 бит; стерео

TOC извлечённого CD

Трек | Старт | Длительность | Начальный сектор | Конечный сектор --------------------------------------------------------------------- 1 | 0:00.00 | 2:27.50 | 0 | 11074 2 | 2:27.50 | 3:43.17 | 11075 | 27816 3 | 6:10.67 | 3:15.15 | 27817 | 42456 4 | 9:26.07 | 2:47.45 | 42457 | 55026 5 | 12:13.52 | 2:48.05 | 55027 | 67631 6 | 15:01.57 | 3:14.28 | 67632 | 82209

Характеристики диапазона извлечения и сообщения об ошибках

Выбранный диапазон

Имя файла D:\КОЛЛЕКЦИЯ 7\BOOGIE STUFF\ROCKIN' THE BLUES\Boogie Stuff - Rockin' The Blues.wav

Пиковый уровень 94.1 % Качество диапазона 99.9 % CRC копии 148006E7 Копирование... OK

Ошибок не произошло

AccurateRip: сводка

Трек 1 точное извлечение (доверие 1) [7072C11D]Трек 2 точное извлечение (доверие 1) [8A45AE52]Трек 3 точное извлечение (доверие 1) [378D261A]Трек 4 точное извлечение (доверие 1) [C47F35A0]Трек 5 точное извлечение (доверие 1) [2D826707]Трек 6 точное извлечение (доверие 1) [E8A99ADE]

Все треки извлечены точно

Конец отчёта
Треклист:
01. Halleluja I love her so [0:03:16.90]
02. Guess who's back in town [0:03:18.33]
03. Quit while you're Behind [0:03:32.53]
04. Hug you, Kiss you, Squeeze you [0:02:55.70]
05. Save yourself [0:03:22.13]
06. Can't you hear me cryin [0:04:14.93]
07. The Stealer [0:04:00.08]
08. Missing you [0:05:19.01]
09. 6400 [0:02:52.09]
10. OOH POO PAH DOO [0:02:27.32]
11. Look out [0:03:58.26]
12. Lost in The Blues [0:03:09.88]
Exact Audio Copy V0.99 prebeta 4 from 23. January 2008

Отчёт EAC об извлечении, выполненном 24. сентября 2010, 14:49

Boogie Stuff / ...still rough'n wild 2

Дисковод: PLEXTOR DVDR PX-820A Adapter: 3 ID: 1

Режим чтения : Достоверность
Использование точного потока : Да
Отключение кэша аудио : Да
Использование указателей C2 : Нет

Коррекция смещения при чтении : 48
Способность читать области Lead-in и Lead-out : Нет
Заполнение пропущенных сэмплов тишиной : Да
Удаление блоков с тишиной в начале и конце : Нет
При вычислениях CRC использовались нулевые сэмплы : Да
Интерфейс : Встроенный Win32-интерфейс для Win NT/2000

Выходной формат : Внутренние WAV-операции
Формат сэмплов : 44.100 Гц; 16 бит; стерео

TOC извлечённого CD

Трек | Старт | Длительность | Начальный сектор | Конечный сектор
---------------------------------------------------------------------
1 | 0:00.00 | 3:16.68 | 0 | 14767
2 | 3:16.68 | 3:18.25 | 14768 | 29642
3 | 6:35.18 | 3:32.40 | 29643 | 45582
4 | 10:07.58 | 2:55.53 | 45583 | 58760
5 | 13:03.36 | 3:22.10 | 58761 | 73920
6 | 16:25.46 | 4:14.70 | 73921 | 93040
7 | 20:40.41 | 4:00.06 | 93041 | 111046
8 | 24:40.47 | 5:19.01 | 111047 | 134972
9 | 29:59.48 | 2:52.07 | 134973 | 147879
10 | 32:51.55 | 2:27.24 | 147880 | 158928
11 | 35:19.04 | 3:58.20 | 158929 | 176798
12 | 39:17.24 | 3:09.66 | 176799 | 191039

Характеристики диапазона извлечения и сообщения об ошибках

Выбранный диапазон

Имя файла D:\КОЛЛЕКЦИЯ 7\BOOGIE STUFF\STILL ROUGH' WILD\Boogie Stuff - ...still rough'n wild 2.wav

Пиковый уровень 100.0 %
Качество диапазона 100.0 %
CRC копии BB2C127D
Копирование... OK

Ошибок не произошло

AccurateRip: сводка

Трек 1 точное извлечение (доверие 1) [2248A8CB]
Трек 2 точное извлечение (доверие 1) [5E648AD6]
Трек 3 точное извлечение (доверие 1) [B3FFD8A9]
Трек 4 точное извлечение (доверие 1) [05F1BD46]
Трек 5 точное извлечение (доверие 1) [F25FAF64]
Трек 6 точное извлечение (доверие 1) [30F72BCA]
Трек 7 точное извлечение (доверие 1) [B7D6A286]
Трек 8 точное извлечение (доверие 1) [0EF3E8FE]
Трек 9 точное извлечение (доверие 1) [30E61449]
Трек 10 точное извлечение (доверие 1) [E5DEA136]
Трек 11 точное извлечение (доверие 1) [09F60280]
Трек 12 точное извлечение (доверие 1) [6BD07518]

Все треки извлечены точно

Конец отчёта
Треклист:
01. Muddy Water [0:03:49.92]
02. Shake [0:03:57.34]
03. Long Way To Memphis [0:04:16.28]
04. Homesick [0:04:00.00]
05. Bad Boy [0:04:21.05]
06. Donґt Believe A Word [0:04:23.18]
07. Funky Town [0:04:05.36]
08. Desert Night [0:05:05.60]
09. Just Got Paid [0:03:41.64]
10. Jungle Of Chicks [0:04:31.22]
11. Indian Of The Group (Live) [0:05:11.20]
12. Who Did You Love [0:03:15.38]
13. Black Limousin [0:05:06.61]
14. Hello Baby [0:03:26.76]
15. Hidden Track [0:03:39.13]
Exact Audio Copy V0.99 prebeta 4 from 23. January 2008

Отчёт EAC об извлечении, выполненном 24. сентября 2010, 14:21

Boogie Stuff / Have Mercy

Дисковод: PLEXTOR DVDR PX-820A Adapter: 3 ID: 1

Режим чтения : Достоверность
Использование точного потока : Да
Отключение кэша аудио : Да
Использование указателей C2 : Нет

Коррекция смещения при чтении : 48
Способность читать области Lead-in и Lead-out : Нет
Заполнение пропущенных сэмплов тишиной : Да
Удаление блоков с тишиной в начале и конце : Нет
При вычислениях CRC использовались нулевые сэмплы : Да
Интерфейс : Встроенный Win32-интерфейс для Win NT/2000

Выходной формат : Внутренние WAV-операции
Формат сэмплов : 44.100 Гц; 16 бит; стерео

TOC извлечённого CD

Трек | Старт | Длительность | Начальный сектор | Конечный сектор
---------------------------------------------------------------------
1 | 0:00.00 | 3:49.69 | 0 | 17243
2 | 3:49.69 | 3:57.26 | 17244 | 35044
3 | 7:47.20 | 4:16.21 | 35045 | 54265
4 | 12:03.41 | 4:00.00 | 54266 | 72265
5 | 16:03.41 | 4:21.04 | 72266 | 91844
6 | 20:24.45 | 4:23.14 | 91845 | 111583
7 | 24:47.59 | 4:05.27 | 111584 | 129985
8 | 28:53.11 | 5:05.45 | 129986 | 152905
9 | 33:58.56 | 3:41.48 | 152906 | 169528
10 | 37:40.29 | 4:31.17 | 169529 | 189870
11 | 42:11.46 | 5:11.15 | 189871 | 213210
12 | 47:22.61 | 3:15.29 | 213211 | 227864
13 | 50:38.15 | 5:06.46 | 227865 | 250860
14 | 55:44.61 | 3:26.57 | 250861 | 266367
15 | 59:11.43 | 3:39.10 | 266368 | 282802

Характеристики диапазона извлечения и сообщения об ошибках

Выбранный диапазон

Имя файла D:\КОЛЛЕКЦИЯ 7\BOOGIE STUFF\HAVE MERCY\Boogie Stuff - Have Mercy.wav

Пиковый уровень 99.9 %
Качество диапазона 99.9 %
CRC копии A75EA459
Копирование... OK

Ошибок не произошло

AccurateRip: сводка

Трек 1 нет в базе данных
Трек 2 нет в базе данных
Трек 3 нет в базе данных
Трек 4 нет в базе данных
Трек 5 нет в базе данных
Трек 6 нет в базе данных
Трек 7 нет в базе данных
Трек 8 нет в базе данных
Трек 9 нет в базе данных
Трек 10 нет в базе данных
Трек 11 нет в базе данных
Трек 12 нет в базе данных
Трек 13 нет в базе данных
Трек 14 нет в базе данных
Трек 15 нет в базе данных

Ни одного трека нет в базе AccurateRip

Конец отчёта


Трекер:  [ 04-Мар-2012 18:57 ]

  

Скачать .torrent

Размер .torrent файла 20 KB


Размер: 872 MB
Хэш (hash) релиза: 8c197ea77e00e834bc51a64b5a193dbefe521ef3

Еще никто не оставлял запись к записи скачать торрент Boogie Stuff - 1992-2001-2004, APE . Будь первым!

!Обратная связь