Скачать через торрент музыку Rob Tognoni - Rock and Roll Live - 2010, APE бесплатно без регистрации torrent

Если у вас наблюдаются проблемы со скриншотами, переходом по ссылками, скачиванием торрентов - проблемы в блокировщике рекламы AdBlock. #хорошегоДня!


Статистика раздачи
Размер:  1006 MB   |    Зарегистрирован:  5 лет 7 месяцев   |    .torrent скачан:  55 раз   |   
Раздают:  1  
   
Загрузка...
 
Автор Сообщение

Umakiro

avatar Umakiro


Rob Tognoni - Rock and Roll Live

Жанр: Blues-Rock

Год издания диска: 2010

Аудио кодек: APE (*.ape)

Тип рипа: image+.cue

Битрейт аудио: lossless

Продолжительность: 2:17:10

Источник (релизер): CD

Наличие сканов в содержимом раздачи: да
01. 01. Rock & Roll Business Man [0:03:36.52]
02. Black Chair [0:03:20.76]
03. Dirty Occupation [0:04:41.20]
04. Dark Angel [0:09:37.66]
05. Drink Jack Boogie [0:04:23.41]
06. Bad Girl [0:04:29.49]
07. Roosevelt & Ira Lee [0:04:52.72]
08. Guitar Boogie Refried [0:02:54.06]
09. My Detonation [0:02:58.70]
10. Product Of A Southern Land [0:08:04.74]
11. Itty Bitty Mama [0:09:12.85]
12. Lands Of Cirrus [0:03:10.76]
13. My Acid Is Kickin' In [0:05:07.14]
  
Exact Audio Copy V0.99 prebeta 4 from 23. January 2008

Отчёт EAC об извлечении, выполненном 20. апреля 2011, 11:33

Rob Tognoni / Rock and Roll Live CD 1

Дисковод: PIONEER DVD-RW DVR-118L Adapter: 0 ID: 0

Режим чтения : ДостоверностьИспользование точного потока : ДаОтключение кэша аудио : ДаИспользование указателей C2 : Нет

Коррекция смещения при чтении : 6Способность читать области Lead-in и Lead-out : НетЗаполнение пропущенных сэмплов тишиной : ДаУдаление блоков с тишиной в начале и конце : НетПри вычислениях CRC использовались нулевые сэмплы : ДаИнтерфейс : Встроенный Win32-интерфейс для Win NT/2000

Выходной формат : Внутренние WAV-операцииФормат сэмплов : 44.100 Гц; 16 бит; стерео

TOC извлечённого CD

Трек | Старт | Длительность | Начальный сектор | Конечный сектор --------------------------------------------------------------------- 1 | 0:00.00 | 3:36.39 | 0 | 16238 2 | 3:36.39 | 3:20.57 | 16239 | 31295 3 | 6:57.21 | 4:41.15 | 31296 | 52385 4 | 11:38.36 | 9:37.50 | 52386 | 95710 5 | 21:16.11 | 4:23.31 | 95711 | 115466 6 | 25:39.42 | 4:29.37 | 115467 | 135678 7 | 30:09.04 | 4:52.54 | 135679 | 157632 8 | 35:01.58 | 2:54.05 | 157633 | 170687 9 | 37:55.63 | 2:58.53 | 170688 | 184090 10 | 40:54.41 | 8:04.56 | 184091 | 220446 11 | 48:59.22 | 9:12.64 | 220447 | 261910 12 | 58:12.11 | 3:10.57 | 261911 | 276217 13 | 61:22.68 | 5:07.11 | 276218 | 299253

Характеристики диапазона извлечения и сообщения об ошибках

Выбранный диапазон

Имя файла D:\КОЛЛЕКЦИЯ 11\Новая папка (3)\CD 1\Rob Tognoni - Rock and Roll Live CD 1.wav

Пиковый уровень 100.0 % Качество диапазона 99.9 % CRC теста 7FA2D15C CRC копии 7FA2D15C Копирование... OK

Ошибок не произошло

AccurateRip: сводка

Трек 1 точное извлечение (доверие 1) [2F75F835]Трек 2 точное извлечение (доверие 1) [4E08C160]Трек 3 точное извлечение (доверие 1) [95FAFED9]Трек 4 точное извлечение (доверие 1) [C08EB0B3]Трек 5 точное извлечение (доверие 1) [7DA66445]Трек 6 точное извлечение (доверие 1) [2BB02D9B]Трек 7 точное извлечение (доверие 1) [C5E2240E]Трек 8 точное извлечение (доверие 1) [58664C69]Трек 9 точное извлечение (доверие 1) [3D82A041]Трек 10 точное извлечение (доверие 1) [F5595E60]Трек 11 точное извлечение (доверие 1) [8310A636]Трек 12 точное извлечение (доверие 1) [2EB88E46]Трек 13 точное извлечение (доверие 1) [5A7140B0]

Все треки извлечены точно

Конец отчёта
01. Hey Joe [0:06:19.88]
02. Keep Your Head Above Water [0:03:38.97]
03. The Real Thing [0:04:37.38]
04. Mr. John Lee [0:04:02.89]
05. God Bless America [0:03:31.49]
06. Jim Beam Blues [0:05:44.64]
07. This Is Rock And Roll [0:03:31.58]
08. 2010dB [0:03:48.09]
09. Words Of A Desperate Man [0:04:29.29]
10. Shoot to Kill [0:04:57.48]
11. Redhouse [0:07:29.08]
12. Baby Please Don't Go [0:13:14.41]
13. Shoot, Hoot, Electrocute [0:05:14.88]
Exact Audio Copy V0.99 prebeta 4 from 23. January 2008

Отчёт EAC об извлечении, выполненном 20. апреля 2011, 3:19

Rob Tognoni / Rock and Roll Live CD 2

Дисковод: Optiarc DVD RW AD-7173A Adapter: 0 ID: 1

Режим чтения : Достоверность
Использование точного потока : Да
Отключение кэша аудио : Да
Использование указателей C2 : Нет

Коррекция смещения при чтении : 48
Способность читать области Lead-in и Lead-out : Нет
Заполнение пропущенных сэмплов тишиной : Да
Удаление блоков с тишиной в начале и конце : Нет
При вычислениях CRC использовались нулевые сэмплы : Да
Интерфейс : Встроенный Win32-интерфейс для Win NT/2000

Выходной формат : Внутренние WAV-операции
Формат сэмплов : 44.100 Гц; 16 бит; стерео

TOC извлечённого CD

Трек | Старт | Длительность | Начальный сектор | Конечный сектор
---------------------------------------------------------------------
1 | 0:00.00 | 6:19.66 | 0 | 28490
2 | 6:19.66 | 3:38.73 | 28491 | 44913
3 | 9:58.64 | 4:37.29 | 44914 | 65717
4 | 14:36.18 | 4:02.67 | 65718 | 83934
5 | 18:39.10 | 3:31.37 | 83935 | 99796
6 | 22:10.47 | 5:44.48 | 99797 | 125644
7 | 27:55.20 | 3:31.44 | 125645 | 141513
8 | 31:26.64 | 3:48.07 | 141514 | 158620
9 | 35:14.71 | 4:29.22 | 158621 | 178817
10 | 39:44.18 | 4:57.36 | 178818 | 201128
11 | 44:41.54 | 7:29.06 | 201129 | 234809
12 | 52:10.60 | 13:14.31 | 234810 | 294390
13 | 65:25.16 | 5:14.66 | 294391 | 318006

Характеристики диапазона извлечения и сообщения об ошибках

Выбранный диапазон

Имя файла D:\КОЛЛЕКЦИЯ 11\Новая папка (3)\CD 2\Rob Tognoni - Rock and Roll Live CD 2.wav

Пиковый уровень 100.0 %
Качество диапазона 99.9 %
CRC теста 64CE9B61
CRC копии 64CE9B61
Копирование... OK

Ошибок не произошло

AccurateRip: сводка

Трек 1 точное извлечение (доверие 1) [C79B3B96]
Трек 2 точное извлечение (доверие 1) [B9F8B18B]
Трек 3 точное извлечение (доверие 1) [4F7B8D07]
Трек 4 точное извлечение (доверие 1) [CDCE1F43]
Трек 5 точное извлечение (доверие 1) [B2F4AD0E]
Трек 6 точное извлечение (доверие 1) [582C42A9]
Трек 7 точное извлечение (доверие 1) [3A347C89]
Трек 8 точное извлечение (доверие 1) [9CCE4234]
Трек 9 точное извлечение (доверие 1) [C39C0D3A]
Трек 10 точное извлечение (доверие 1) [84462189]
Трек 11 точное извлечение (доверие 1) [E76409C5]
Трек 12 точное извлечение (доверие 1) [F80D4907]
Трек 13 точное извлечение (доверие 1) [3C232FD0]

Все треки извлечены точно

Конец отчёта


Трекер:  [ 04-Мар-2012 18:57 ]

  

Скачать .torrent

Размер .torrent файла 21 KB


Размер: 1006 MB
Хэш (hash) релиза: 032035e13037a50d9fe6c66de7e8d0e8be1c6722

Еще никто не оставлял запись к записи скачать торрент Rob Tognoni - Rock and Roll Live - 2010, APE . Будь первым!

!Обратная связь