Скачать через торрент музыку Neal Black & The Healers - Sometimes The Truth - 2011, APE бесплатно без регистрации torrent

Если у вас наблюдаются проблемы со скриншотами, переходом по ссылками, скачиванием торрентов - проблемы в блокировщике рекламы AdBlock. #хорошегоДня!


Статистика раздачи
Размер:  405 MB   |    Зарегистрирован:  5 лет 7 месяцев   |    .torrent скачан:  59 раз   |   
Раздают:  1  
   
Загрузка...
 
Автор Сообщение

Umakiro

avatar Umakiro


Neal Black & The Healers - Sometimes The Truth

Жанр: Blues
Год издания диска: 2011
Аудио кодек: APE (*.ape)
Тип рипа: image+.cue
Битрейт аудио: lossless
Источник (релизер): CD
Наличие сканов в содержимом раздачи: да
Треклист:
01. New York City Blues [0:05:29.80]
02. Lie To Be Loved [0:05:16.56]
03. Mississippi Doctor [0:04:48.36]
04. Holiday Inn In Heaven [0:04:36.45]
05. Chicken Shack Cognac [0:04:04.04]
06. Yesterday S Promises Tomorrow [0:05:11.53]
07. Love And Money [0:03:33.84]
08. Gringo Bring Me Your Guns [0:04:47.29]
09. Buda Texas Boogie [0:03:34.74]
10. Left Her Back In Dallas [0:04:22.05]
11. Sometimes The Truth [0:04:21.92]
12. Good Bye Baby [0:02:37.93]
13. Justified Suspicion [0:04:37.52]
14. Track14 [0:12:24.85]
  
Exact Audio Copy V0.99 prebeta 4 from 23. January 2008

Отчёт EAC об извлечении, выполненном 30. апреля 2011, 0:34

Neal Black / Sometimes The Truth

Дисковод: Optiarc DVD RW AD-7173A Adapter: 0 ID: 1

Режим чтения : ДостоверностьИспользование точного потока : ДаОтключение кэша аудио : ДаИспользование указателей C2 : Нет

Коррекция смещения при чтении : 48Способность читать области Lead-in и Lead-out : НетЗаполнение пропущенных сэмплов тишиной : ДаУдаление блоков с тишиной в начале и конце : НетПри вычислениях CRC использовались нулевые сэмплы : ДаИнтерфейс : Встроенный Win32-интерфейс для Win NT/2000

Выходной формат : Внутренние WAV-операцииФормат сэмплов : 44.100 Гц; 16 бит; стерео

TOC извлечённого CD

Трек | Старт | Длительность | Начальный сектор | Конечный сектор --------------------------------------------------------------------- 1 | 0:00.00 | 5:29.60 | 0 | 24734 2 | 5:29.60 | 5:16.42 | 24735 | 48476 3 | 10:46.27 | 4:48.27 | 48477 | 70103 4 | 15:34.54 | 4:36.34 | 70104 | 90837 5 | 20:11.13 | 4:04.03 | 90838 | 109140 6 | 24:15.16 | 5:11.40 | 109141 | 132505 7 | 29:26.56 | 3:33.63 | 132506 | 148543 8 | 33:00.44 | 4:47.22 | 148544 | 170090 9 | 37:47.66 | 3:34.56 | 170091 | 186196 10 | 41:22.47 | 4:22.04 | 186197 | 205850 11 | 45:44.51 | 4:21.69 | 205851 | 225494 12 | 50:06.45 | 2:37.70 | 225495 | 237339 13 | 52:44.40 | 4:37.39 | 237340 | 258153 14 | 59:54.04 | 12:24.64 | 269554 | 325417

Характеристики диапазона извлечения и сообщения об ошибках

Выбранный диапазон

Имя файла E:\РАЗДАЧИ\Neal Black - Sometimes The Truth\Neal Black - Sometimes The Truth.wav

Пиковый уровень 98.8 % Качество диапазона 99.9 % CRC теста CE9C3134 CRC копии CE9C3134 Копирование... OK

Ошибок не произошло

AccurateRip: сводка

Трек 1 нет в базе данныхТрек 2 нет в базе данныхТрек 3 нет в базе данныхТрек 4 нет в базе данныхТрек 5 нет в базе данныхТрек 6 нет в базе данныхТрек 7 нет в базе данныхТрек 8 нет в базе данныхТрек 9 нет в базе данныхТрек 10 нет в базе данныхТрек 11 нет в базе данныхТрек 12 нет в базе данныхТрек 13 нет в базе данных

Ни одного трека нет в базе AccurateRip

Конец отчёта
На диске присутствует клип, взять можно http://depositfiles.com/files/2gjb1u72w

Трекер:  [ 04-Мар-2012 18:56 ]

  

Скачать .torrent

Размер .torrent файла 17 KB


Размер: 405 MB
Хэш (hash) релиза: 1f959f926437384038f528f64593d54a0e5d2e5f

Еще никто не оставлял запись к записи скачать торрент Neal Black & The Healers - Sometimes The Truth - 2011, APE . Будь первым!

!Обратная связь