Скачать через торрент музыку Jimi Barbiani Band - Back On The Tracks - 2010, APE бесплатно без регистрации torrent

Если у вас наблюдаются проблемы со скриншотами, переходом по ссылками, скачиванием торрентов - проблемы в блокировщике рекламы AdBlock. #хорошегоДня!


Статистика раздачи
Размер:  404 MB   |    Зарегистрирован:  5 лет 7 месяцев   |    .torrent скачан:  56 раз   |   
Раздают:  1  
   
Загрузка...
 
Автор Сообщение

Umakiro

avatar Umakiro


Jimi Barbiani Band - Back On The Tracks

Жанр: Blues-Rock
Год издания диска: 2010
Аудио кодек: APE (*.ape)
Тип рипа: image+.cue
Битрейт аудио: lossless
Продолжительность: 1:00:19
Источник (релизер): CD
Наличие сканов в содержимом раздачи: да
Треклист:
01. I Feel So Lonely [0:06:08.52]
02. I Got The Devil [0:05:29.30]
03. Good Time Man [0:04:12.32]
04. Weeping Sky [0:07:05.49]
05. Party Angel [0:03:48.96]
06. Streets Of Love [0:03:30.61]
07. Superstition [0:04:31.92]
08. Sure Got Cold After The Rain Fell [0:05:23.97]
09. You Don't Know [0:05:07.14]
10. The Day Of The Witch [0:04:08.21]
11. Good Morning [0:10:52.70]
  
Exact Audio Copy V0.99 prebeta 4 from 23. January 2008

Отчёт EAC об извлечении, выполненном 24. апреля 2011, 7:05

Jimi Barbiani Band / Back On The Tracks

Дисковод: Optiarc DVD RW AD-7173A Adapter: 0 ID: 1

Режим чтения : ДостоверностьИспользование точного потока : ДаОтключение кэша аудио : ДаИспользование указателей C2 : Нет

Коррекция смещения при чтении : 48Способность читать области Lead-in и Lead-out : НетЗаполнение пропущенных сэмплов тишиной : ДаУдаление блоков с тишиной в начале и конце : НетПри вычислениях CRC использовались нулевые сэмплы : ДаИнтерфейс : Встроенный Win32-интерфейс для Win NT/2000

Выходной формат : Внутренние WAV-операцииФормат сэмплов : 44.100 Гц; 16 бит; стерео

TOC извлечённого CD

Трек | Старт | Длительность | Начальный сектор | Конечный сектор --------------------------------------------------------------------- 1 | 0:00.00 | 6:08.39 | 0 | 27638 2 | 6:08.39 | 5:29.23 | 27639 | 52336 3 | 11:37.62 | 4:12.24 | 52337 | 71260 4 | 15:50.11 | 7:05.37 | 71261 | 103172 5 | 22:55.48 | 3:48.72 | 103173 | 120344 6 | 26:44.45 | 3:30.46 | 120345 | 136140 7 | 30:15.16 | 4:31.69 | 136141 | 156534 8 | 34:47.10 | 5:23.73 | 156535 | 180832 9 | 40:11.08 | 5:07.11 | 180833 | 203868 10 | 45:18.19 | 4:08.16 | 203869 | 222484 11 | 49:26.35 | 10:52.53 | 222485 | 271437

Характеристики диапазона извлечения и сообщения об ошибках

Выбранный диапазон

Имя файла D:\КОЛЛЕКЦИЯ 11\Новая папка (24)\Jimi Barbiani Band - Back On The Tracks.wav

Пиковый уровень 100.0 % Качество диапазона 99.9 % CRC теста 4110540B CRC копии 4110540B Копирование... OK

Ошибок не произошло

AccurateRip: сводка

Трек 1 нет в базе данныхТрек 2 нет в базе данныхТрек 3 нет в базе данныхТрек 4 нет в базе данныхТрек 5 нет в базе данныхТрек 6 нет в базе данныхТрек 7 нет в базе данныхТрек 8 нет в базе данныхТрек 9 нет в базе данныхТрек 10 нет в базе данныхТрек 11 нет в базе данных

Ни одного трека нет в базе AccurateRip

Конец отчёта


Трекер:  [ 04-Мар-2012 18:56 ]

  

Скачать .torrent

Размер .torrent файла 17 KB


Размер: 404 MB
Хэш (hash) релиза: ac58d06dbe53b80b0fd0925b1b22343d571ab3b0

Еще никто не оставлял запись к записи скачать торрент Jimi Barbiani Band - Back On The Tracks - 2010, APE . Будь первым!

!Обратная связь