Скачать через торрент музыку Eric Lindell - Between Motion and Rest - 2010, APE бесплатно без регистрации torrent

Если у вас наблюдаются проблемы со скриншотами, переходом по ссылками, скачиванием торрентов - проблемы в блокировщике рекламы AdBlock. #хорошегоДня!


Статистика раздачи
Размер:  180 MB   |    Зарегистрирован:  5 лет 7 месяцев   |    .torrent скачан:  38 раз   |   
Раздают:  1  
   
Загрузка...
 
Автор Сообщение

Umakiro

avatar Umakiro


Eric Lindell - Between Motion and Rest

Жанр: Blues
Год издания диска: 2010
Аудио кодек: APE (*.ape)
Тип рипа: image+.cue
Битрейт аудио: lossless
Продолжительность: 27:49
Источник (релизер): CD
Наличие сканов в содержимом раздачи: да
Треклист:
01. Lucky Lucky [0:05:01.18]
02. Try to Understand [0:02:49.72]
03. True Blue Love [0:02:43.36]
04. It's So Hard to Believe [0:04:06.02]
05. Bodega [0:03:12.92]
06. Matrimony [0:02:45.69]
07. That's Why I'm Crying [0:03:28.48]
08. Don't Fret [0:03:41.92]
  
Exact Audio Copy V0.99 prebeta 4 from 23. January 2008

Отчёт EAC об извлечении, выполненном 24. апреля 2011, 9:47

Eric Lindell / Between Motion and Rest

Дисковод: Optiarc DVD RW AD-7173A Adapter: 0 ID: 1

Режим чтения : ДостоверностьИспользование точного потока : ДаОтключение кэша аудио : ДаИспользование указателей C2 : Нет

Коррекция смещения при чтении : 48Способность читать области Lead-in и Lead-out : НетЗаполнение пропущенных сэмплов тишиной : ДаУдаление блоков с тишиной в начале и конце : НетПри вычислениях CRC использовались нулевые сэмплы : ДаИнтерфейс : Встроенный Win32-интерфейс для Win NT/2000

Выходной формат : Внутренние WAV-операцииФормат сэмплов : 44.100 Гц; 16 бит; стерео

TOC извлечённого CD

Трек | Старт | Длительность | Начальный сектор | Конечный сектор --------------------------------------------------------------------- 1 | 0:00.00 | 5:01.14 | 0 | 22588 2 | 5:01.14 | 2:49.54 | 22589 | 35317 3 | 7:50.68 | 2:43.27 | 35318 | 47569 4 | 10:34.20 | 4:06.02 | 47570 | 66021 5 | 14:40.22 | 3:12.69 | 66022 | 80490 6 | 17:53.16 | 2:45.52 | 80491 | 92917 7 | 20:38.68 | 3:28.36 | 92918 | 108553 8 | 24:07.29 | 3:41.69 | 108554 | 125197

Характеристики диапазона извлечения и сообщения об ошибках

Выбранный диапазон

Имя файла D:\КОЛЛЕКЦИЯ 11\Новая папка (26)\Eric Lindell - Between Motion and Rest.wav

Пиковый уровень 100.0 % Качество диапазона 99.9 % CRC теста C02B57A4 CRC копии C02B57A4 Копирование... OK

Ошибок не произошло

AccurateRip: сводка

Трек 1 нет в базе данныхТрек 2 нет в базе данныхТрек 3 нет в базе данныхТрек 4 нет в базе данныхТрек 5 нет в базе данныхТрек 6 нет в базе данныхТрек 7 нет в базе данныхТрек 8 нет в базе данных

Ни одного трека нет в базе AccurateRip

Конец отчёта


Трекер:  [ 04-Мар-2012 18:54 ]

  

Скачать .torrent

Размер .torrent файла 15 KB


Размер: 180 MB
Хэш (hash) релиза: f41454e2a24dcafe9d61808416f44e4e146c3998

Еще никто не оставлял запись к записи скачать торрент Eric Lindell - Between Motion and Rest - 2010, APE . Будь первым!

!Обратная связь