Скачать через торрент музыку Fred James & Mary-Ann Brandon - We Belong Together - 2010, APE бесплатно без регистрации torrent

Если у вас наблюдаются проблемы со скриншотами, переходом по ссылками, скачиванием торрентов - проблемы в блокировщике рекламы AdBlock. #хорошегоДня!


Статистика раздачи
Размер:  347 MB   |    Зарегистрирован:  5 лет 7 месяцев   |    .torrent скачан:  45 раз   |   
Раздают:  1  
   
Загрузка...
 
Автор Сообщение

Umakiro

avatar Umakiro


Fred James & Mary-Ann Brandon - We Belong Together

Жанр: Blues
Год издания диска: 2010
Аудио кодек: APE (*.ape)
Тип рипа: image+.cue
Битрейт аудио: lossless
Продолжительность: 54:14
Источник (релизер): CD
Наличие сканов в содержимом раздачи: да
Треклист:
01. Wrong Train, Right Track [0:03:23.98]
02. We Belong Together [0:03:18.80]
03. We're All In It Together [0:04:31.21]
04. No Easy Way Out [0:04:34.68]
05. Go Ahead On [0:03:38.22]
06. Snakin' Up On You [0:03:40.89]
07. No More One More Chance [0:02:52.72]
08. I Do Declare [0:02:53.82]
09. We Got A Secret [0:05:32.28]
10. Sleeping With The Devil [0:03:28.78]
11. Check Out Her Mama [0:03:01.86]
12. I Can't Do That [0:05:29.16]
13. A Fool's Advice [0:04:49.36]
14. He's Cool & She's Hot [0:02:58.12]
  
Exact Audio Copy V0.99 prebeta 4 from 23. January 2008

Отчёт EAC об извлечении, выполненном 20. апреля 2011, 2:03

Fred James & Mary-Ann Brandon / We Belong Together

Дисковод: Optiarc DVD RW AD-7173A Adapter: 0 ID: 1

Режим чтения : ДостоверностьИспользование точного потока : ДаОтключение кэша аудио : ДаИспользование указателей C2 : Нет

Коррекция смещения при чтении : 48Способность читать области Lead-in и Lead-out : НетЗаполнение пропущенных сэмплов тишиной : ДаУдаление блоков с тишиной в начале и конце : НетПри вычислениях CRC использовались нулевые сэмплы : ДаИнтерфейс : Встроенный Win32-интерфейс для Win NT/2000

Выходной формат : Внутренние WAV-операцииФормат сэмплов : 44.100 Гц; 16 бит; стерео

TOC извлечённого CD

Трек | Старт | Длительность | Начальный сектор | Конечный сектор --------------------------------------------------------------------- 1 | 0:00.00 | 3:23.74 | 0 | 15298 2 | 3:23.74 | 3:18.60 | 15299 | 30208 3 | 6:42.59 | 4:31.16 | 30209 | 50549 4 | 11:14.00 | 4:34.51 | 50550 | 71150 5 | 15:48.51 | 3:38.17 | 71151 | 87517 6 | 19:26.68 | 3:40.67 | 87518 | 104084 7 | 23:07.60 | 2:52.54 | 104085 | 117038 8 | 26:00.39 | 2:53.62 | 117039 | 130075 9 | 28:54.26 | 5:32.21 | 130076 | 154996 10 | 34:26.47 | 3:28.59 | 154997 | 170655 11 | 37:55.31 | 3:01.65 | 170656 | 184295 12 | 40:57.21 | 5:29.12 | 184296 | 208982 13 | 46:26.33 | 4:49.27 | 208983 | 230684 14 | 51:15.60 | 2:58.09 | 230685 | 244043

Характеристики диапазона извлечения и сообщения об ошибках

Выбранный диапазон

Имя файла D:\КОЛЛЕКЦИЯ 11\Новая папка (2)\Fred James & Mary-Ann Brandon - We Belong Together.wav

Пиковый уровень 98.1 % Качество диапазона 99.9 % CRC теста 106598A9 CRC копии 106598A9 Копирование... OK

Ошибок не произошло

AccurateRip: сводка

Трек 1 нет в базе данныхТрек 2 нет в базе данныхТрек 3 нет в базе данныхТрек 4 нет в базе данныхТрек 5 нет в базе данныхТрек 6 нет в базе данныхТрек 7 нет в базе данныхТрек 8 нет в базе данныхТрек 9 нет в базе данныхТрек 10 нет в базе данныхТрек 11 нет в базе данныхТрек 12 нет в базе данныхТрек 13 нет в базе данныхТрек 14 нет в базе данных

Ни одного трека нет в базе AccurateRip

Конец отчёта


Трекер:  [ 04-Мар-2012 18:54 ]

  

Скачать .torrent

Размер .torrent файла 14 KB


Размер: 347 MB
Хэш (hash) релиза: b575e4f9c35f366cd79353c95d207ae10d704d7a

Еще никто не оставлял запись к записи скачать торрент Fred James & Mary-Ann Brandon - We Belong Together - 2010, APE . Будь первым!

!Обратная связь