Скачать через торрент музыку Howard Glazer & the EL 34s - Wired For sound - 2011, APE бесплатно без регистрации torrent

Если у вас наблюдаются проблемы со скриншотами, переходом по ссылками, скачиванием торрентов - проблемы в блокировщике рекламы AdBlock. #хорошегоДня!


Статистика раздачи
Размер:  446 MB   |    Зарегистрирован:  5 лет 7 месяцев   |    .torrent скачан:  69 раз   |   
Раздают:  1  
   
Загрузка...
 
Автор Сообщение

Umakiro

avatar Umakiro


Howard Glazer & the EL 34's - Wired For sound

Жанр: Blues-Rock
Год издания диска: 2011
Аудио кодек: APE (*.ape)
Тип рипа: image+.cue
Битрейт аудио: lossless
Продолжительность: 1:07:36
Источник (релизер): CD
Наличие сканов в содержимом раздачи: да
Треклист:
01. Touch My Heart [0:03:32.37]
02. Happy In My Arms [0:04:03.48]
03. Living On The Edge [0:05:08.28]
04. Detroit Blues Party [0:04:43.10]
05. Hurts So Badly [0:06:59.97]
06. Waiting For The Train [0:04:00.04]
07. Wall Street Bailout [0:04:27.90]
08. I Got A Good Girl [0:04:54.50]
09. Get Me Out Of Here [0:04:41.97]
10. Reel Me In [0:05:22.28]
11. Half Empty [0:05:00.50]
12. No Regrets [0:04:30.84]
13. Goodbye [0:03:30.08]
14. Detroit Blues Party (reprise) [0:06:40.26]
  
Exact Audio Copy V0.99 prebeta 4 from 23. January 2008

Отчёт EAC об извлечении, выполненном 24. апреля 2011, 7:40

Howard Glazer & the EL 34's / Wired For sound

Дисковод: Optiarc DVD RW AD-7173A Adapter: 0 ID: 1

Режим чтения : ДостоверностьИспользование точного потока : ДаОтключение кэша аудио : ДаИспользование указателей C2 : Нет

Коррекция смещения при чтении : 48Способность читать области Lead-in и Lead-out : НетЗаполнение пропущенных сэмплов тишиной : ДаУдаление блоков с тишиной в начале и конце : НетПри вычислениях CRC использовались нулевые сэмплы : ДаИнтерфейс : Встроенный Win32-интерфейс для Win NT/2000

Выходной формат : Внутренние WAV-операцииФормат сэмплов : 44.100 Гц; 16 бит; стерео

TOC извлечённого CD

Трек | Старт | Длительность | Начальный сектор | Конечный сектор --------------------------------------------------------------------- 1 | 0:00.00 | 3:32.28 | 0 | 15927 2 | 3:32.28 | 4:03.36 | 15928 | 34188 3 | 7:35.64 | 5:08.21 | 34189 | 57309 4 | 12:44.10 | 4:43.08 | 57310 | 78542 5 | 17:27.18 | 6:59.73 | 78543 | 110040 6 | 24:27.16 | 4:00.03 | 110041 | 128043 7 | 28:27.19 | 4:27.68 | 128044 | 148136 8 | 32:55.12 | 4:54.38 | 148137 | 170224 9 | 37:49.50 | 4:41.73 | 170225 | 191372 10 | 42:31.48 | 5:22.21 | 191373 | 215543 11 | 47:53.69 | 5:00.38 | 215544 | 238081 12 | 52:54.32 | 4:30.63 | 238082 | 258394 13 | 57:25.20 | 3:30.06 | 258395 | 274150 14 | 60:55.26 | 6:40.20 | 274151 | 304170

Характеристики диапазона извлечения и сообщения об ошибках

Выбранный диапазон

Имя файла D:\КОЛЛЕКЦИЯ 11\Новая папка (25)\Howard Glazer & the EL 34's - Wired For sound.wav

Пиковый уровень 94.4 % Качество диапазона 100.0 % CRC теста 7C765397 CRC копии 7C765397 Копирование... OK

Ошибок не произошло

AccurateRip: сводка

Трек 1 нет в базе данныхТрек 2 нет в базе данныхТрек 3 нет в базе данныхТрек 4 нет в базе данныхТрек 5 нет в базе данныхТрек 6 нет в базе данныхТрек 7 нет в базе данныхТрек 8 нет в базе данныхТрек 9 нет в базе данныхТрек 10 нет в базе данныхТрек 11 нет в базе данныхТрек 12 нет в базе данныхТрек 13 нет в базе данныхТрек 14 нет в базе данных

Ни одного трека нет в базе AccurateRip

Конец отчёта


Трекер:  [ 04-Мар-2012 08:14 ]

  

Скачать .torrent

Размер .torrent файла 18 KB


Размер: 446 MB
Хэш (hash) релиза: 2d87f750ebcccf7067320d41aada05fd74ea9b90

Еще никто не оставлял запись к записи скачать торрент Howard Glazer & the EL 34s - Wired For sound - 2011, APE . Будь первым!

!Обратная связь